<?xml version="1.0" standalone="no"?>
<!DOCTYPE svg PUBLIC "-//W3C//DTD SVG 1.1//EN" "http://www.w3.org/Graphics/SVG/1.1/DTD/svg11.dtd" >
<svg>
<metadata>
Created by FontForge 20090622 at Fri Jan  4 17:58:53 2019
 By deploy user
Blankids Studio
</metadata>
<defs>
<font id="BlueskyRegular" horiz-adv-x="988" >
  <font-face 
    font-family="Bluesky"
    font-weight="400"
    font-stretch="normal"
    units-per-em="1000"
    panose-1="0 0 0 0 0 0 0 0 0 0"
    ascent="800"
    descent="-200"
    x-height="361"
    cap-height="695"
    bbox="-1084 -328 1592 978"
    underline-thickness="0"
    underline-position="0"
    unicode-range="U+000A-U+F038"
  />
<missing-glyph horiz-adv-x="454" 
 />
    <glyph glyph-name="unif001" unicode="tt" horiz-adv-x="506" 
d="M469 431q3 2 6 2.5t5 -0.5l2 -1q1 -3 2 -8.5t0.5 -19t-4.5 -23.5t-16.5 -18.5t-32.5 -8.5q-9 0 -77 2q-28 -32 -40 -51q-26 -37 -46 -72t-34.5 -69t-11.5 -56t26 -26q2 0 3 1q39 9 83.5 50t69.5 77l25 37l33 -17q-64 -119 -135 -174.5t-131 -55.5q-36 0 -57.5 23
t-23.5 47q0 20 1 32q-90 -102 -178 -102q-36 0 -57.5 23t-23.5 47q-7 102 123 289q0 1 4 6t6 8q-46 2 -49 2q-22 -3 -31.5 -10t-11 -12.5t-2.5 -5.5q-21 -2 -29 20q-10 29 19 45q18 11 49 11q51 0 91 -1q42 56 73 84.5t47 34t39 5.5q28 0 43.5 -15t17.5 -30l1 -15
q-40 -13 -97 -67l129 -3q62 83 96 106.5t68 23.5q28 0 43.5 -15t17.5 -30l2 -15q-44 -14 -104 -73h42q7 0 11.5 3.5t8.5 8.5t5 6zM238 359q0 2 2 2q-24 1 -69.5 3.5t-65.5 3.5q-39 -48 -50 -63q-26 -38 -45.5 -72.5t-34 -68.5t-11.5 -56t26 -26q2 0 3 1q78 19 169 151
q31 60 76 125z" />
    <glyph glyph-name=".notdef" horiz-adv-x="454" 
 />
    <glyph glyph-name=".null" horiz-adv-x="0" 
 />
    <glyph glyph-name="nonmarkingreturn" unicode="&#xa;" horiz-adv-x="0" 
 />
    <glyph glyph-name="space" unicode=" " horiz-adv-x="306" 
 />
    <glyph glyph-name="exclam" unicode="!" horiz-adv-x="438" 
d="M150 93q25 0 43 -18t18 -44t-18 -44t-43 -18q-26 0 -44 18.5t-18 43.5t18 43.5t44 18.5zM541 726q21 0 34.5 -12t16.5 -24l4 -11q-28 -40 -117 -187.5l-164 -274.5l-75 -127q-22 0 -37 12t-19 24l-4 13q126 229 235.5 408t125.5 179z" />
    <glyph glyph-name="quotedbl" unicode="&#x22;" horiz-adv-x="467" 
d="M689 686q43 0 43 -59q0 -25 -7 -42.5t-17 -25t-20 -11t-17 -2.5h-7q25 34 23 55q-17 2 -28.5 14t-11.5 28q0 17 12.5 30t29.5 13zM568 686q43 0 43 -59q0 -25 -7 -42.5t-17 -25t-20 -11t-17 -2.5h-7q26 34 22 55q-16 2 -27.5 14t-11.5 28q0 17 12.5 30t29.5 13z" />
    <glyph glyph-name="numbersign" unicode="#" horiz-adv-x="663" 
d="M674 356q56 -16 56 -32q0 -8 -7 -11t-14 -3l-7 1q-4 4 -50 10l-39 -63q4 -1 9.5 -2.5t7.5 -1.5q55 -15 55 -32q0 -8 -7 -11t-14 -3l-7 1q-5 5 -67 11l-90 -146q-22 0 -37.5 11.5t-20.5 22.5l-4 12q6 13 60 105q-40 0 -75 -4l-89 -147q-22 0 -37.5 11.5t-20.5 22.5l-4 12
q11 22 46 82q-2 -1 -5 -1h-7.5h-10t-10.5 0.5t-11 1.5t-9.5 3t-8.5 5t-5.5 7.5t-2.5 10.5q0 25 108 38q22 38 24 41q0 1 2 1q-2 0 -2 -1q-20 -5 -23 -5h-7.5h-9.5t-10 0.5t-11 1.5t-9.5 3t-8.5 5t-5.5 7.5t-2.5 10.5q0 28 126 40v1q5 0 16 0.5t16 1.5q-6 0 -16 -1t-16 -1
l93 137q21 0 37 -12t21 -24l6 -12q-35 -50 -56 -85q29 0 67 -4q24 39 47.5 73l34.5 49l11 15q20 0 36 -12t22 -24l6 -12q-37 -50 -70 -104v-1zM558 327h2q-31 1 -73 -2q-5 -7 -32 -52q29 1 70 -1z" />
    <glyph glyph-name="dollar" unicode="$" horiz-adv-x="648" 
d="M697 671q29 -21 38 -54t-3 -67q-14 -44 -37.5 -75.5t-39.5 -40.5l-16 -10q-3 0 -5.5 1.5t-3.5 2.5l-2 2q1 3 3.5 8t9 20t12 29.5t11 34t8 36t1.5 33t-7 27.5l-150 -260q33 -68 33 -155q0 -47 -16.5 -84t-40 -58t-53.5 -34.5t-53.5 -18t-43.5 -4.5q-10 0 -30 2l-47 -81
q-14 0 -31 6.5t-28 13.5l-10 7q1 2 6.5 11t18 31.5l23.5 41.5q-48 40 -48 119q0 71 39.5 111t74.5 40q16 0 24.5 -6t9.5 -12v-5q-37 0 -61 -48t-24 -86q0 -41 15 -63l161 278l-18.5 31l-19 33t-11 29t-5.5 38q0 40 16.5 75.5t41.5 58t55.5 39t57.5 24t48 7.5q11 0 29 -2
l45 76q12 0 28 -7.5t26 -15.5l10 -7q-1 -1 -5.5 -9.5l-15 -27zM469 481q0 -23 7 -46l117 200q-55 -13 -89.5 -60.5t-34.5 -93.5zM473 205q0 40 -6 70l-120 -208q49 10 87.5 43.5t38.5 94.5z" />
    <glyph glyph-name="percent" unicode="%" horiz-adv-x="680" 
d="M675 184q45 -11 45 -68q0 -61 -42.5 -106.5t-90.5 -45.5q-14 0 -24.5 5t-14.5 9l-4 5q-20 3 -34 20q-15 19 -15 47q0 64 41.5 104.5t86.5 40.5h9q29 -1 43 -11zM591 17q24 10 47 40t23 67q0 13 -4 20q-4 10 -17 13q-33 -3 -58.5 -39t-25.5 -66q0 -38 24 -38q5 0 11 3z
M414 503q-22 20 -22 54q0 65 42 105t87 40h8q26 -1 43 -11q45 -14 45 -68q0 -61 -42.5 -106.5t-90.5 -45.5q-14 0 -24.5 4.5t-14.5 9.5l-4 5q-14 2 -27 13zM531 663q-31 -6 -54.5 -41t-23.5 -63q0 -37 23 -38h1q20 0 50.5 34t30.5 76q0 11 -4 21q-4 7 -10 9.5t-10 2.5l-4 -1
h1zM745 732q12 0 25 -6t20 -12l7 -6l-421 -744q-13 0 -26.5 4.5t-20.5 9.5l-7 4q45 89 151 276.5l189 330.5z" />
    <glyph glyph-name="ampersand" unicode="&#x26;" horiz-adv-x="657" 
d="M661 255q2 -1 5 -2t11 -6t14 -11t11 -17.5t5 -24.5q0 -44 -25 -90.5t-59.5 -79t-68.5 -53.5t-53 -21q-37 0 -64 18l-1 -2l-35 -72q-20 0 -33.5 6t-16.5 12l-3 6q7 18 29 65q-27 11 -46 26q-41 34 -41 95q0 45 14 84t34 62.5t39.5 40.5t33.5 23l14 7q-1 1 -3 2
q-53 29 -53 90q0 52 28.5 99t67 76t74.5 46t55 17q11 0 25 -4q4 -1 10 -3v1q23 46 36 62q5 1 12 0.5t21.5 -11.5t18.5 -34q-15 -23 -29 -48l-1 -1q-1 -1 -1 -2q58 -27 58 -88q0 -42 -10 -73t-26 -46.5t-36 -25t-39.5 -11t-35.5 -0.5t-26 3l-10 3q37 6 65.5 30t39.5 52.5
t15 57t-8 44.5q-10 15 -26 15q-62 0 -127 -57t-65 -114t51 -63h42q9 0 12.5 -5t1.5 -10l-1 -5q-97 -30 -154 -120q-48 -76 -32 -133q13 -48 71 -48q13 0 20 1q53 6 97.5 46t63.5 82t9 61q-5 8 -14 8q-25 0 -53.5 -11.5t-44.5 -23.5l-17 -11q4 45 32.5 77t59.5 32q11 0 16 -1
q14 -2 25.5 -7.5t15.5 -9.5z" />
    <glyph glyph-name="quotesingle" unicode="'" horiz-adv-x="341" 
d="M554 676q42 0 42 -58q0 -25 -7 -43t-17 -25t-20 -11t-17 -3h-7q27 33 23 55q-17 2 -28 14t-11 28q0 18 12.5 30.5t29.5 12.5z" />
    <glyph glyph-name="parenleft" unicode="(" horiz-adv-x="470" 
d="M676 717q15 0 21.5 -7.5t6.5 -15.5l-1 -7l-27 -17t-66.5 -50t-95.5 -82t-104 -111t-102 -140q-44 -71 -78.5 -149.5t-52 -139.5t-28.5 -111.5t-14 -78.5l-3 -27q0 1 -4.5 -0.5t-11 2.5t-13 9.5t-11 21.5t-4.5 39q0 109 35 222.5t90 206t122.5 175t133.5 139t121 89
t86 32.5z" />
    <glyph glyph-name="parenright" unicode=")" horiz-adv-x="409" 
d="M147 716q0 -1 4.5 0.5t11.5 -2t13.5 -9.5t11.5 -21.5t5 -38.5q0 -110 -35 -223.5t-90.5 -205.5t-123 -175t-133.5 -139t-121.5 -88.5t-86.5 -32.5q-14 0 -20.5 7.5t-6.5 15.5l1 7l27 17t66.5 50t95.5 81.5t104 111t102 139.5q70 114 113.5 240.5t52.5 195.5z" />
    <glyph glyph-name="asterisk" unicode="*" horiz-adv-x="517" 
d="M317 234l94 -109q1 -17 -6.5 -23t-15.5 -4l-8 3q-44 42 -91 97v1l-1 1q-27 -47 -43.5 -87t-19.5 -57l-3 -17q-26 2 -41 12t-16 19l-2 9q14 58 36 107l-8 -4h-1q-1 -1 -2 -1l-67 -33q-4 1 -11 2.5t-17 9t-9 19.5q47 39 152 87l-36 52.5l-25 37.5l-7 13q0 21 9 25.5
t18 -2.5l10 -6q26 -40 56 -82q21 33 44 63.5t36 44.5l12 13q20 0 33 -5.5t18 -12.5t7 -14.5t2 -12.5l-1 -6q-29 -34 -46 -56q61 20 112 32q4 -1 10 -4t16 -14.5t10 -24.5z" />
    <glyph glyph-name="plus" unicode="+" horiz-adv-x="486" 
d="M439 287q51 -7 81 -21.5t30 -27.5q0 -8 -5 -11t-11 -2l-5 1q-64 15 -119 17q-39 -59 -62 -110t-26 -73l-4 -21q-27 2 -42 12t-16 19l-2 9q20 78 58 155q-1 -1 -2 -1q-12 -3 -23.5 -7t-17.5 -6.5t-8 -2.5q-49 0 -49 29q0 33 130 43h1q23 37 48.5 71t39.5 50l14 15
q19 0 32 -5.5t18 -12.5t7 -14.5t2 -12.5l-1 -6q-51 -63 -67 -86q0 -1 -1 -1z" />
    <glyph glyph-name="comma" unicode="," horiz-adv-x="239" 
d="M76 86q43 0 43 -59q0 -25 -7 -42.5t-17 -25t-20 -11t-17 -2.5h-7q25 34 23 55q-17 2 -28.5 14t-11.5 28q0 17 12.5 30t29.5 13z" />
    <glyph glyph-name="hyphen" unicode="-" horiz-adv-x="513" 
d="M362 281q51 0 92 -9.5t59.5 -21t18.5 -21.5q0 -8 -5 -11.5t-11 -2.5l-5 1q-49 12 -92.5 16t-72.5 0.5t-50 -9t-34 -10.5t-15 -5h-5.5h-7t-8 0.5t-8.5 1.5t-7.5 3t-7 5t-4 7.5t-1.5 10.5q0 22 57 33.5t107 11.5z" />
    <glyph glyph-name="period" unicode="." horiz-adv-x="239" 
d="M51 86q17 0 29.5 -13t12.5 -30t-12.5 -29.5t-29.5 -12.5t-29 12.5t-12 29.5t12 30t29 13z" />
    <glyph glyph-name="slash" unicode="/" horiz-adv-x="486" 
d="M454 652q12 0 25 -6t20 -12l7 -5l-421 -744q-14 0 -27.5 4t-20.5 9l-7 4q46 89 152 276.5l189 330.5z" />
    <glyph glyph-name="zero" unicode="0" horiz-adv-x="487" 
d="M385 602q106 0 106 -97q0 -82 -26 -161.5t-66.5 -139t-88.5 -105.5t-93.5 -70t-79.5 -24q-85 0 -116 85q-15 42 -15 97q0 79 47.5 178.5t126.5 173t157 73.5q28 0 48 -10zM149 75q52 19 113.5 97.5t103 176t41.5 167.5q0 35 -21 54q-109 -14 -199 -165q-71 -118 -89 -237
q-10 -92 24 -98q12 0 27 5z" />
    <glyph glyph-name="one" unicode="1" horiz-adv-x="424" 
d="M428 570l-37.5 -49t-82.5 -115t-103.5 -154.5t-79.5 -144t-31 -107.5h-10t-21.5 2.5t-27.5 8t-21.5 18t-9.5 29.5q0 31 77.5 168.5t158.5 250.5q-34 -13 -61 -13q-32 0 -42 14.5t-4 29.5l6 14q54 -1 202 77q21 18 31 18q56 0 56 -47z" />
    <glyph glyph-name="two" unicode="2" horiz-adv-x="547" 
d="M470 504q0 -44 -33.5 -97.5t-89.5 -106.5t-109 -95t-113 -83h25q43 0 72 -10t39.5 -24t15 -28t2.5 -24l-2 -10q-39 22 -91 27.5t-98 -2.5t-86.5 -19.5t-64.5 -21.5l-24 -10q-35 21 -41 39.5t11 31.5t52 24q97 59 173 114.5t122 97.5t78 81t45.5 64.5t19.5 48.5t5 32.5
t-3 17.5l-2 3q-61 0 -108.5 -18.5t-72.5 -46t-37.5 -52t-12.5 -42.5t6 -33.5t12 -21.5l6 -7q-10 0 -22 4.5t-27 14.5t-25 33t-10 55q0 71 76.5 124t200.5 53q14 0 29 -3.5t34.5 -13t32.5 -32.5t14 -56q1 -2 1 -8z" />
    <glyph glyph-name="three" unicode="3" horiz-adv-x="499" 
d="M499 510q0 -116 -147 -170q66 -12 66 -89q0 -57 -51.5 -118t-113 -97t-98.5 -36q-55 0 -108 36t-54 84l-1 1v1q0 46 38 80.5t61 34.5q10 0 15 -3t5 -6v-3q-16 -2 -33.5 -24t-26.5 -47.5t5 -46.5t55 -21h8q64 5 120.5 60.5t80.5 108.5q6 14 6 22q0 21 -27 26t-88 5h-6
q129 66 182 159q33 58 15 83q-4 5 -9 7q-2 1 -9 1q-34 0 -68.5 -10.5t-60 -27.5t-43 -38.5t-17 -43.5t18.5 -43q-23 -10 -55 10t-32 59q0 59 67 106t162 47q21 0 42.5 -4t45.5 -14t39 -32.5t16 -54.5v-2z" />
    <glyph glyph-name="four" unicode="4" horiz-adv-x="602" 
d="M594 570l-37.5 -49t-82.5 -115t-103.5 -154.5t-79.5 -144t-31 -107.5h-10t-21.5 2.5t-27.5 8t-21.5 18t-9.5 29.5q0 32 88 186q-65 7 -119 3.5t-89 -11.5l-34 -9q-17 6 -24.5 15t-6.5 15l1 6q104 45 186.5 120t119 136.5t36.5 97.5q67 0 51 -92q-13 -72 -74.5 -132.5
t-142.5 -100.5q62 1 116 -13q79 133 155 235.5t105 102.5q56 0 56 -47z" />
    <glyph glyph-name="five" unicode="5" horiz-adv-x="555" 
d="M272 527l-2 -1q-82 -95 -130 -173q16 4 40 4q28 0 50 -7q41 -12 66.5 -40.5t25.5 -65.5q0 -21 -11 -51t-34.5 -63.5t-55 -62.5t-76.5 -48t-94 -19q-38 0 -60.5 15t-28 37t-3.5 45t10 40t16 21q0 -4 0.5 -9.5t3.5 -21t7.5 -27t15 -21t23.5 -9.5q54 0 132.5 65t78.5 119v5
q-3 31 -36.5 35t-71 -12t-53.5 -37q-3 2 -20.5 -0.5t-37.5 10t-20 37.5q0 37 88 160.5t107 137.5q18 14 139 23q54 4 82 4q39 0 61.5 -17.5t25.5 -34.5l3 -17q-122 11 -241 -21z" />
    <glyph glyph-name="six" unicode="6" horiz-adv-x="471" 
d="M297 380q37 -5 60 -31t23 -70q0 -47 -27.5 -98.5t-67.5 -90.5t-85 -64.5t-79 -25.5q-30 0 -58 18t-45 53q-20 42 -20 100q0 71 50 153t119.5 145t143.5 105.5t121 42.5q18 0 28.5 -7.5t11.5 -14.5l2 -7q-234 -133 -338 -278q37 38 80.5 56.5t80.5 13.5zM130 81
q39 6 84.5 59t71 107t19.5 70q-1 3 -5 3q-62 0 -132 -49t-90 -124q-1 7 -1 20q-4 -39 9.5 -63t34.5 -24q6 0 9 1z" />
    <glyph glyph-name="seven" unicode="7" horiz-adv-x="499" 
d="M492 534q-127 -88 -226 -193q21 -13 21 -33q0 -10 -7 -16t-14 -6l-7 -1q0 17 -26 20q-61 -72 -106 -148.5t-59 -116.5l-15 -40q-2 0 -6.5 1t-15 7t-18.5 15t-14.5 28.5t-6.5 44.5q0 59 107 189q-20 0 -31.5 1t-24.5 9.5t-13 24.5q0 33 133 37l92.5 95t77.5 74l28 26h-2
q-56 0 -115.5 -17t-90.5 -34l-31 -17q-37 2 -61 28q-16 18 -3 26q122 79 293 79q41 0 72 -13q25 -10 42.5 -27.5t22.5 -30.5z" />
    <glyph glyph-name="eight" unicode="8" horiz-adv-x="460" 
d="M460 504q0 -38 -20.5 -82.5t-53.5 -85t-56 -64.5l-46 -46q24 -59 24 -96q0 -57 -45.5 -96t-103.5 -43h-15q-64 0 -104 49t-40 116q0 63 46 114t97 51q16 0 32 -4q-12 45 -12 85q0 87 52 151t135 64q3 0 8.5 0.5t21 -2t28.5 -8t26.5 -20.5t19.5 -37q6 -20 6 -46zM227 116
q2 10 2 16q0 17 -4.5 37.5t-9.5 34.5t-15 39.5t-14 38.5q-43 -11 -74.5 -50.5t-31.5 -81.5q0 -39 22.5 -58.5t48.5 -19.5q23 0 46 11t30 33zM256 298q45 50 75 94.5t42.5 74t15.5 51.5t-2.5 33t-15.5 13h-5q-38 0 -81.5 -45t-43.5 -126q0 -48 15 -95z" />
    <glyph glyph-name="nine" unicode="9" horiz-adv-x="471" 
d="M455 546q19 -41 19 -100q0 -71 -50 -153.5t-119.5 -145.5t-143.5 -105t-121 -42q-17 0 -27.5 7t-12.5 14l-2 7q239 136 338 279q-36 -39 -79.5 -57t-80.5 -13q-37 4 -60 30t-23 71q0 93 92.5 186t166.5 93q30 0 58 -18t45 -53zM396 449q4 39 -9.5 63.5t-34.5 24.5
q-2 0 -5 -0.5t-4 -0.5q-39 -6 -84.5 -59t-71.5 -107t-19 -70q2 -4 5 -4q62 0 131.5 49t90.5 125q1 -7 1 -21z" />
    <glyph glyph-name="colon" unicode=":" horiz-adv-x="309" 
d="M188 195q17 0 29.5 -12t12.5 -29q0 -18 -12.5 -30t-29.5 -12t-29.5 12t-12.5 30q0 17 12.5 29t29.5 12zM297 394q17 0 29 -12.5t12 -29.5t-12 -29.5t-29 -12.5q-18 0 -30 12.5t-12 29.5t12 29.5t30 12.5z" />
    <glyph glyph-name="semicolon" unicode=";" horiz-adv-x="304" 
d="M196 186q43 0 43 -58q0 -40 -17 -60t-34 -20l-17 -1q26 34 22 55q-16 2 -27.5 14t-11.5 28q0 17 12.5 29.5t29.5 12.5zM295 385q18 0 30 -12.5t12 -30.5q0 -17 -12 -29.5t-30 -12.5q-17 0 -29 12.5t-12 29.5t12.5 30t28.5 13z" />
    <glyph glyph-name="less" unicode="&#x3c;" horiz-adv-x="513" 
d="M387 215h1q30 -50 47 -111.5t19 -97.5l3 -37q-11 -20 -24.5 -22.5t-22.5 5.5l-8 7q-12 114 -54 216q-8 20 -16 37t-12 24l-4 8q60 64 140 124t130 88l50 28q15 -4 24.5 -17.5t11.5 -24.5l2 -12q-98 -56 -170 -110t-94 -80z" />
    <glyph glyph-name="equal" unicode="=" horiz-adv-x="483" 
d="M252 200q51 0 92 -9.5t59.5 -21.5t18.5 -22q0 -8 -5 -11t-11 -2l-5 1q-49 12 -93 16t-72.5 0t-49.5 -9.5t-34.5 -10.5t-15.5 -5q-48 0 -48 29q0 22 57.5 33.5t106.5 11.5zM313 331q51 0 92 -9.5t59.5 -21t18.5 -21.5q0 -8 -5.5 -11t-10.5 -2l-5 1q-49 12 -93 16t-72.5 0
t-49.5 -9.5t-34 -10.5t-15 -5h-4.5h-5.5h-6.5t-6.5 0.5t-6 2l-6.5 2.5t-5.5 3.5t-4.5 5.5t-2.5 6.5t-1 8.5q0 22 57.5 33t106.5 11z" />
    <glyph glyph-name="greater" unicode="&#x3e;" horiz-adv-x="486" 
d="M304 464l84 -108l58 -80l19 -27q-26 -28 -40 -41q-59 -58 -134 -123.5t-121 -101.5l-45 -36q-15 5 -24.5 18.5t-10.5 24.5l-2 11q64 47 139 113.5t108 99.5t52 54l1 1q-30 50 -64.5 96.5t-54.5 67.5l-20 21q11 20 24.5 22.5t22.5 -4.5z" />
    <glyph glyph-name="question" unicode="?" horiz-adv-x="660" 
d="M517 110q24 0 41 -17t17 -41q0 -23 -17 -40t-41 -17q-23 0 -40 17t-17 40q0 24 17 41t40 17zM734 733q72 0 112 -43t40 -104q0 -146 -152 -261q-56 -43 -90.5 -77t-43 -49t-8.5 -24q0 -2 1 -11t0.5 -13t-5.5 -8t-16 -4q-13 0 -23.5 4.5t-14.5 8.5l-3 4q-7 15 -8 31
t5 31.5t14.5 30.5t23 31t28 29.5t32 28.5l32.5 26l31.5 24.5t26.5 21.5q51 43 78.5 92.5t27.5 83.5q0 48 -27 68.5t-61 20.5q-32 0 -54.5 -9.5t-32 -23.5t-13 -24t-3.5 -18v-5v-7t0.5 -7t1 -7.5t2 -6.5t3.5 -6.5t4.5 -5t6.5 -3.5t9 -1q15 0 27 7q5 3 9 7t6 7l1 2
q6 -20 -11 -50t-43 -30q-17 0 -30.5 11.5t-18.5 22.5l-6 12q-6 3 -12 11q-17 21 -17 50q0 58 48.5 95t122.5 37z" />
    <glyph glyph-name="at" unicode="@" horiz-adv-x="725" 
d="M539 520q112 0 174.5 -58t62.5 -153q0 -88 -56.5 -147t-113.5 -59q-73 0 -74 61v1q0 6 2 18l-3 -3q-44 -42 -70 -42q-71 0 -97 51q-11 20 -11 48q0 62 53 117.5t124 55.5q55 0 89 -26.5t34 -57.5q0 -21 -14 -40q-1 0 -1 -1l-2 -21q-21 -17 -29.5 -40.5t-6.5 -38.5l2 -15
q4 0 7 1q34 4 63 44.5t29 93.5q0 151 -159 151q-68 0 -123 -40t-81.5 -94.5t-26.5 -105.5q0 -68 43 -108.5t91 -40.5q15 0 27 3q16 4 31.5 13.5t23 14.5t10.5 2t3.5 -13.5t-4.5 -24.5t-15 -26.5t-31 -21.5t-49 -9q-64 0 -116 38q-83 61 -83 177q0 109 85.5 202.5t211.5 93.5
zM458 190q38 6 77 45l2 2q0 3 0.5 8t3.5 17t8.5 21.5t17.5 17.5t28 8q13 0 20 -3v2q-3 18 -18.5 30.5t-43.5 12.5q-49 0 -89 -54t-40 -77q0 -31 23 -31q2 0 5.5 0.5t5.5 0.5z" />
    <glyph glyph-name="A" unicode="A" 
d="M1143 738q24 0 41 -4.5t24.5 -11t11.5 -12.5t4 -10l1 -5q-74 -51 -177.5 -222t-175.5 -338t-72 -225q-19 -15 -53.5 9t-34.5 66q0 23 27 93q-12 90 -62 143q-421 -337 -498 -337q-48 0 -72.5 20t-25.5 40l-1 20q234 83 531 303q-40 18 -88 22.5t-77 0.5l-28 -5
q0 24 6.5 43.5t16 30.5t19.5 18.5t16 10.5l7 3q118 0 198 -70q168 131 336 290q85 127 126 127zM775 163q47 107 115 234l-160 -133q31 -47 45 -101z" />
    <glyph glyph-name="B" unicode="B" horiz-adv-x="686" 
d="M704 701q119 -23 119 -127q0 -15 -7 -38q-41 -116 -293 -282q51 -4 84 -35.5t35 -81.5v-5q0 -66 -54.5 -123.5t-127 -87.5t-137.5 -30q-35 0 -60.5 7t-37 17.5t-18 20.5t-7.5 17v7q9 -22 41 -22q27 0 74 11.5t102.5 33.5t95.5 63.5t40 92.5t-41 51q-12 0 -24 -3
q-38 -11 -80.5 -44.5t-65.5 -65.5v-9q0 -10 4 -17.5t8 -10.5l5 -3q-12 -19 -40 -21.5t-53 22t-25 73.5q0 59 64 170t151 201t143 90q33 0 48 -14.5t13 -29.5l-1 -14q-35 0 -114 -77.5t-137 -173.5q285 182 322 299q5 14 5 25q0 29 -31 41q-28 11 -84 11q-103 0 -211.5 -65.5
t-178 -163t-69.5 -187.5q0 -23 20.5 -35.5t40.5 -13.5l21 -1q0 -13 -35 -14q-61 -3 -95 37q-25 29 -25 76q0 108 84 211t207.5 164t240.5 61q49 0 84 -7z" />
    <glyph glyph-name="C" unicode="C" horiz-adv-x="563" 
d="M399 360q65 17 116 45.5t80.5 59t48 62.5t24 56.5t2.5 41.5q-1 12 -8 15q-77 0 -165 -67t-154 -159.5t-110.5 -188.5t-44.5 -154q0 -41 17.5 -72t58.5 -31q12 0 19 2q58 13 146.5 86t162.5 154q28 -6 38 -9q-24 -43 -67.5 -95.5t-95 -101.5t-108 -82.5t-99.5 -33.5
q-55 0 -97.5 29t-61.5 80q-13 35 -13 79q0 68 33.5 155t90.5 170.5t125 154.5t146 114.5t146 43.5h11q23 -1 40 -5.5t36.5 -17t30 -41t10.5 -70.5q0 -59 -48.5 -121t-110 -99t-104.5 -37q-37 0 -61 9.5t-29 18.5z" />
    <glyph glyph-name="D" unicode="D" horiz-adv-x="789" 
d="M717 693q64 -12 110 -61t46 -120q0 -73 -54 -162t-135.5 -167.5t-171.5 -145.5t-168.5 -106.5t-119.5 -39.5t-64 21.5t-26 42.5l-2 21q17 -11 65 -11q42 0 114 42q-27 3 -46 26.5t-19 66.5q0 59 64 170.5t151 201.5t143 90q33 0 48 -14.5t13 -29.5l-2 -14
q-24 0 -76.5 -44.5t-105.5 -108.5t-93.5 -146.5t-40.5 -147.5q0 -13 8 -23q151 100 287 256t136 258q0 1 -0.5 4.5t-0.5 5.5q-8 58 -106 58q-68 0 -155.5 -28t-167 -74.5t-134.5 -116t-55 -143.5q0 -19 6.5 -36t12.5 -24l6 -8q-1 2 -10 -0.5t-23.5 4t-28.5 15.5t-24 34
t-10 61q0 38 28 89t82 104.5t124.5 99t165.5 74.5t195 29q16 0 34 -3z" />
    <glyph glyph-name="E" unicode="E" horiz-adv-x="586" 
d="M392 346q57 0 121.5 53.5t102 120.5t28.5 107q0 4 -2 6q-60 0 -121 -32t-106.5 -78.5t-84 -99.5t-59.5 -94.5t-26 -63.5q62 39 127 39q27 0 47 -7t29.5 -16.5t15 -19t6.5 -16.5l1 -7q-64 8 -122.5 -14t-95 -60.5t-58 -82t-21.5 -80.5q0 -15 8.5 -25.5t33.5 -15.5
q18 -2 33 -2q68 0 122.5 52t61.5 110q1 4 1 13q-44 7 -103 -43.5t-59 -82.5q-18 38 -7.5 70.5t38.5 57t58 39.5t51 17h6q37 2 64.5 -18.5t27.5 -50.5q0 -79 -85 -157.5t-171 -78.5q-79 0 -124.5 38t-49.5 94v9q0 36 33 95t84 105q-32 60 1.5 144.5t100.5 155t150.5 120.5
t144.5 50q17 0 28 -1q110 -9 110 -94q0 -43 -39 -115.5t-97 -131t-102 -58.5q-41 0 -66.5 12.5t-30.5 24.5z" />
    <glyph glyph-name="F" unicode="F" horiz-adv-x="601" 
d="M561 319q57 -10 57 -69q0 -13 -4 -18t-8 -3l-5 2q-29 26 -83 21q-89 -136 -180 -256q-23 -31 -34.5 -58t-11.5 -38v-12q-12 0 -21 2t-20.5 8t-18 21.5t-6.5 39.5q0 18 12 44.5t39.5 69l48 72l61.5 86.5h-19q-60 0 -85.5 30.5t-11.5 59.5q4 7 9 7t8 -4l4 -3
q15 -22 60 -22.5t91 10.5q134 190 144 267q4 33 -14.5 51t-62.5 18q-82 0 -163.5 -46.5t-130.5 -112.5t-49 -124q0 -37 9.5 -65t18.5 -37l9 -10q-43 0 -79.5 40.5t-36.5 119.5q0 16 10.5 47.5t41 77t74.5 84.5t122 67t174 28q34 0 69 -10q99 -33 99 -131q0 -66 -117 -254z
" />
    <glyph glyph-name="G" unicode="G" horiz-adv-x="639" 
d="M653 548q-29 0 -28 6q33 34 45 62t7 39l-5 11h-7q-52 -3 -119 -41.5t-123.5 -94.5t-95.5 -125.5t-39 -128.5q0 -25 5 -46t15 -21q8 0 20 5q70 24 235 181q79 125 152 125q19 0 30.5 -10t13.5 -20l2 -9q-22 0 -48 -32.5t-54 -85l-60.5 -116t-73.5 -126.5t-86.5 -115.5
t-105 -85t-124.5 -32.5q-83 0 -112 61q-9 22 -9 46q0 11 3.5 23.5t15.5 29.5t30.5 30.5t51.5 22.5t76 9q-35 -5 -66.5 -59.5t-18.5 -82.5q6 -13 22 -13q12 0 18 1q70 9 126 77t121 189q-89 -71 -170 -71q-56 0 -85 46q-23 39 -23 92q0 50 37 124.5t96 146.5t146.5 123.5
t175.5 51.5q52 0 93 -22t41 -57v-4q-3 -36 -50.5 -70t-74.5 -34z" />
    <glyph glyph-name="H" unicode="H" horiz-adv-x="861" 
d="M1024 719q24 0 41 -4.5t24.5 -10.5t11.5 -12.5t5 -11.5v-4q-61 -43 -142.5 -168t-155.5 -276q11 -10 14.5 -21t1.5 -17l-2 -6q-3 7 -29 14q-112 -234 -112 -311q-19 -15 -53.5 9.5t-34.5 66.5q0 48 96 250q-54 5 -141 6q-125 -213 -142 -250q-7 -15 -8.5 -33.5t0.5 -29.5
l2 -11q-94 0 -94 72q0 22 20 65t42 79.5l65 104.5q-61 -5 -110.5 -17.5t-77 -27t-46.5 -28.5t-25 -23l-7 -9q-34 -9 -56.5 5.5t-22.5 57.5q0 8 7 18.5t31.5 27t64 30t114.5 24t172 11.5q134 211 140 286q5 62 -63 62q-41 0 -92.5 -30.5t-91 -84t-39.5 -108.5q0 -24 5.5 -42
t13 -27.5t15 -16t13.5 -8.5l5 -1q-5 -15 -45 -7q-59 13 -87 62q-15 27 -15 60q0 28 24 73t62.5 90t97 77t118.5 32q27 0 48 -4q53 -11 86 -46t34 -91q1 -60 -121 -278q73 -3 131 -15q89 179 177 313t131 134z" />
    <glyph glyph-name="I" unicode="I" horiz-adv-x="452" 
d="M437 690q53 -11 86 -45.5t35 -90.5q1 -65 -138 -307l-62.5 -106.5l-64.5 -111t-36 -68.5q-7 -15 -8 -33t1 -29l2 -11q-94 0 -94 72q0 18 10 44.5t38.5 75l42.5 71l57 90.5l77.5 124.5t55.5 105t30 92.5q5 63 -63 63q-66 0 -145 -71t-79 -152q0 -24 5.5 -42t13 -27.5
t15 -16t12.5 -7.5l6 -2q-5 -15 -43 -7q-59 13 -87 61q-16 27 -16 61q0 28 24 73t62.5 90t96.5 77t118 32q29 0 48 -5z" />
    <glyph glyph-name="J" unicode="J" horiz-adv-x="772" 
d="M695 722q27 0 47 -5.5t43.5 -24.5t36 -63.5t12.5 -113.5q0 -60 -26.5 -139.5t-80 -164.5t-123 -157t-166 -118.5t-198.5 -46.5q-132 0 -150 106q-2 20 -2 33q0 59 40.5 107t99.5 74t121.5 40.5t111.5 12t63 -18.5q-191 0 -290 -119q-53 -64 -55 -125q-1 -34 16 -34
q12 0 38 2q80 8 155.5 47.5t131.5 97.5t102.5 127.5t74 138.5t39.5 129t6 100q-8 55 -47 55q-55 0 -138.5 -46t-148 -114t-64.5 -121q0 -21 12 -37.5t24 -22.5l13 -6q-11 -10 -33.5 -8t-45 9.5t-39 30.5t-16.5 54t20 72.5t59.5 85t90.5 80t121 60t144 23.5h1z" />
    <glyph glyph-name="K" unicode="K" horiz-adv-x="734" 
d="M1112 722q63 0 92 -38q17 -26 0 -37q-103 0 -233.5 -58t-247 -141.5t-240.5 -193.5q111 -256 286 -314q77 -25 162 -9q-1 -4 -3.5 -10.5t-13 -23.5t-24 -30t-38 -23.5t-53.5 -10.5q-40 0 -85.5 21t-95.5 63.5t-100 117t-89 170.5q-100 -94 -181 -181q-82 -123 -82 -135
q-42 0 -63.5 12.5t-22.5 24.5v13q0 26 99.5 167l206.5 296t120 210q6 32 -17 32q-52 0 -111.5 -33t-103 -78t-72.5 -89.5t-29 -67.5q0 -27 8.5 -48t16.5 -28l8 -8q-61 0 -88 34t-27 79q0 16 18 51.5t54 81t82 87t112 69.5t134 28q6 0 9 -1q37 -5 70 -37.5t33 -92.5
q0 -39 -153 -268q108 103 217 187t233 148t212 64z" />
    <glyph glyph-name="L" unicode="L" horiz-adv-x="669" 
d="M590 -3q73 0 110.5 -30t37.5 -63v-3q-1 -25 -24.5 -55.5t-38.5 -32.5q1 4 2.5 9.5t3 21.5t-0.5 29t-10.5 26t-24.5 18q-12 2 -20 2q-104 0 -261 -30t-215 -30q-28 0 -55.5 16.5t-34.5 36.5t14 39q26 -25 183 0v3q0 22 66 120l146 206.5t147 215t69 142.5q0 20 -18 20
q-69 0 -146 -55t-123.5 -117.5t-46.5 -94.5q0 -27 8 -48t16 -29l8 -7q-61 0 -87.5 34t-26.5 79q0 16 18 51.5t54 81t82 86.5t111.5 69t133.5 28h5q38 -3 73 -35.5t35 -95.5q0 -27 -71.5 -141.5t-185 -280t-142.5 -211.5q144 25 209 25z" />
    <glyph glyph-name="M" unicode="M" horiz-adv-x="985" 
d="M1138 710q24 -1 41 -6t24 -11.5t11.5 -13t4.5 -11.5v-4q-75 -49 -184 -216.5t-185.5 -332.5t-78.5 -223q-19 -15 -53 10.5t-33 67.5q1 33 57 153.5t132 250.5l-263 -297h-2q-36 0 -51.5 26t-12.5 62t11 72.5t18 62.5l9 25q-1 -1 -2 -3l-38.5 -49.5l-69.5 -87.5
l-94 -113.5l-94 -104.5t-89 -84.5t-60 -30.5q-25 0 -41.5 7.5t-21.5 18t-6.5 21t0.5 17.5l2 8q40 11 95.5 57t111 107.5t118 141.5t113 151.5l100.5 145.5l76 114.5l43 68.5l6 9q28 0 48 -15.5t20 -35.5q0 -18 -140 -438l-6 -17q8 8 378 405q71 92 106 92z" />
    <glyph glyph-name="N" unicode="N" horiz-adv-x="932" 
d="M1153 710q32 0 47.5 -8.5t15.5 -17.5v-8q-51 0 -140 -112t-168 -253t-138 -267.5t-59 -157.5q-1 0 -2 0.5t-2 0.5q-34 1 -57 26t-32 67.5t-11.5 91t2.5 106t11.5 103.5t15.5 92q-148 -255 -277.5 -388t-205.5 -133q-43 0 -63 14t-18 28l1 13q55 -14 134.5 51t155.5 167.5
t151 223.5t124 214t72 145q1 1 1 2q28 11 49.5 2t33.5 -26l12 -18q-59 -159 -89 -282t-35 -181.5t-5 -142.5v4q6 36 57 138.5t120 216.5t153.5 201.5t145.5 87.5z" />
    <glyph glyph-name="O" unicode="O" horiz-adv-x="794" 
d="M695 732q33 -3 62.5 -13.5t60 -30.5t48.5 -57t18 -87q0 -56 -34 -137.5t-92 -165t-126.5 -156.5t-146 -119t-141.5 -46q-120 0 -148 66q-11 25 -11 58q0 12 4 40q-15 4 -30 14q-36 22 -53.5 61.5t-17.5 79.5q0 65 57.5 152.5t142 162.5t188 127.5t186.5 52.5q9 0 33 -2z
M783 547q0 51 -5 67q-18 48 -91 48q-80 0 -194.5 -77.5t-201.5 -176t-109 -165.5q-5 -18 -5 -29q0 -50 29 -64q40 113 123.5 209t156.5 96q37 0 51 -16.5t10 -32.5l-4 -17q-63 0 -125 -71.5t-104 -168.5q25 5 47 14t31 15l9 7q0 -32 -31 -62.5t-80 -41.5q-29 -100 3 -100h9
q71 4 159.5 77.5t157.5 168t116.5 186t47.5 134.5z" />
    <glyph glyph-name="P" unicode="P" horiz-adv-x="747" 
d="M801 704q99 -37 99 -152q0 -69 -78 -164.5t-174.5 -163t-151.5 -67.5q-35 0 -53 25q-112 -205 -112 -293q-18 -15 -53 9.5t-35 66.5q0 45 67 182.5t155 261t136 123.5q24 0 41 -4.5t24.5 -11t11.5 -12.5t4 -10l1 -5q-97 -68 -203 -244q118 33 214.5 138t104.5 180v9
q0 15 -2 24.5t-11.5 25t-35.5 23.5t-67 8q-77 0 -159 -37t-146 -93t-116 -118t-80 -115t-28 -82q0 -19 13 -30t26 -12l13 -2q-37 -18 -77.5 4.5t-40.5 87.5q0 38 27.5 95.5t82 122t124.5 120t165.5 92t195.5 36.5q70 0 118 -18z" />
    <glyph glyph-name="Q" unicode="Q" horiz-adv-x="771" 
d="M872 563q0 -78 -62.5 -198t-162.5 -232t-198 -162q96 -10 96 -84q0 -42 -33 -63.5t-63 -11.5q25 11 37 43q14 36 -16 42q-5 1 -10 1q-33 0 -141 -38.5t-144 -38.5t-61 11t-34 26.5t-8.5 32.5t11.5 30q0 -11 13.5 -22.5t34.5 -11.5q13 0 33.5 8t54.5 23.5t57 24.5
q-71 10 -92 61q-11 25 -11 58q0 12 4 40q-20 7 -30 14q-36 22 -53.5 61.5t-17.5 80.5q0 65 57.5 152t141.5 162t187.5 127.5t186.5 52.5q22 0 34 -2q33 -3 62.5 -13t60 -30t48.5 -57t18 -87zM290 -1q71 5 159.5 78t157.5 167.5t116.5 186t47.5 134.5q0 52 -5 67
q-18 48 -91 48q-80 0 -194.5 -77.5t-201.5 -176t-109 -165.5q-5 -18 -5 -29q0 -49 29 -64q40 113 123.5 209t156.5 96q37 0 51 -16.5t10 -32.5l-4 -17q-64 0 -125.5 -71.5t-103.5 -168.5q25 5 47 14t31 15l9 7q0 -31 -31 -61.5t-80 -42.5q-14 -43 -13.5 -71.5t16.5 -28.5h9z
" />
    <glyph glyph-name="R" unicode="R" horiz-adv-x="777" 
d="M977 -36q2 -4 4 -10.5t1.5 -22.5t-9.5 -28.5t-37.5 -23t-74.5 -10.5q-111 0 -231.5 93t-183.5 214q-48 -89 -78 -167.5t-30 -119.5q-19 -15 -54 9.5t-35 66.5q0 45 67 182.5t155 261t136 123.5q24 0 41 -4.5t24.5 -11t11.5 -12.5t4 -10l1 -5q-94 -65 -201 -242
q116 35 209.5 138.5t101.5 177.5v9q0 15 -2 24.5t-11.5 25t-35.5 23.5t-67 8q-77 0 -159 -37t-146 -93t-116 -118t-80 -115t-28 -82q0 -19 13 -30t26 -12l13 -2q-37 -18 -77.5 4.5t-40.5 87.5q0 38 27.5 95.5t82 122t124.5 120t165.5 92t195.5 36.5q70 0 118 -18
q99 -37 99 -152q0 -61 -62.5 -144.5t-146 -150t-149.5 -90.5q19 -24 39 -46t48.5 -48.5t57 -47.5t64 -39t71 -27.5t76 -8.5t79.5 14z" />
    <glyph glyph-name="S" unicode="S" horiz-adv-x="647" 
d="M826 641q1 -6 1 -18q0 -44 -41 -101t-94 -96t-87 -39q-31 0 -44 8.5t-11 16.5l3 8q60 34 100.5 71t55 64.5t20 50.5t2.5 35l-3 12q-6 2 -14 4q-57 13 -144 -26t-163.5 -101t-133.5 -134.5t-60 -121.5v-5q114 82 233 46q63 -18 102.5 -65.5t39.5 -110.5q0 -74 -55 -133
t-130.5 -87.5t-148.5 -28.5q-49 0 -84.5 12.5t-51.5 33t-23 39t-7 37.5q0 22 8 42q15 34 49.5 56.5t90.5 22.5q22 0 32.5 -8.5t9.5 -16.5l-1 -9q-37 -8 -62 -22t-34.5 -28.5t-13 -27.5t-1.5 -21l1 -9q6 -8 22 -15q24 -11 65 -11q89 0 153 54t81 119q5 20 5 34q0 9 -2.5 19.5
t-10 25.5t-26.5 25t-47 10q-36 0 -74.5 -17t-59.5 -33l-21 -17q-5 0 -12.5 0.5t-28.5 5t-38 11t-33.5 21.5t-22.5 35q-4 16 -4 24q0 59 55 137.5t136 146t182.5 114.5t185.5 47q31 0 53.5 -3t46 -11.5t37 -26.5t17.5 -45z" />
    <glyph glyph-name="T" unicode="T" horiz-adv-x="412" 
d="M879 717q9 -25 -23.5 -63t-95.5 -38q-34 0 -156 8q-111 -137 -229.5 -384t-118.5 -324q-19 -15 -54 9t-35 66q0 52 109.5 277.5t207.5 364.5q-93 7 -127 7q-86 0 -131.5 -30t-45.5 -65q0 -17 17 -31t35 -19l17 -5q-34 -19 -70 -18t-63.5 28t-27.5 69q0 59 66.5 103.5
t174.5 44.5q66 0 211 -13q37 40 58 40q37 0 57.5 -11t22.5 -22l2 -11q-1 0 -4.5 -3t-5.5 -4q59 -6 90 -6q33 0 62.5 7.5t43.5 15.5z" />
    <glyph glyph-name="U" unicode="U" horiz-adv-x="725" 
d="M922 691q33 0 48 -14.5t13 -28.5l-2 -15q-19 0 -64.5 -44.5t-100.5 -120t-106 -163t-85 -185.5t-34 -176q0 -9 4.5 -16.5t8.5 -10.5l4 -3q-13 -19 -41 -21.5t-53 22t-25 72.5q0 40 15 100q-164 -199 -240 -199q-78 0 -113 59q-20 34 -20 86q0 48 50 138t141.5 224
t105.5 157q27 47 31 60q2 8 2 9q-39 -13 -94 -51.5t-104.5 -90.5t-72.5 -108.5t3 -105.5q-3 -5 -14.5 -7t-26.5 2t-29.5 13.5t-24.5 30t-10 48.5q0 38 34 95.5t86.5 112.5t126 94.5t142.5 39.5h1q44 0 63 -20.5t19 -60.5q0 -27 -109 -195q-147 -225 -188 -307
q-78 -154 -1 -154q12 0 41 24q84 70 284 317q79 154 179 273.5t156 119.5z" />
    <glyph glyph-name="V" unicode="V" horiz-adv-x="591" 
d="M913 725q42 0 69 -18t24 -39q-70 0 -200 -110.5t-248.5 -249t-208 -262.5t-89.5 -153q-19 0 -35 5.5t-25 12.5t-15.5 14.5t-8.5 12.5l-2 6q-19 33 18 126.5t94.5 192t112 201.5t61.5 146q8 38 -20 38q-56 0 -110.5 -33t-90.5 -78t-58 -88.5t-22 -67.5q0 -27 9 -45t18 -22
l9 -5q-39 -20 -73 12.5t-34 87.5q0 64 54 139t135 126t153 51h8q100 -5 100 -122q0 -35 -44 -127t-110.5 -218.5t-96.5 -197.5q61 91 139.5 195.5t171.5 215t179 182.5t136 72z" />
    <glyph glyph-name="W" unicode="W" horiz-adv-x="783" 
d="M1093 727q32 0 53 -9t27 -20t0 -18q-40 0 -130.5 -84t-185.5 -202t-178 -259t-108 -242h-3q-9 1 -19 4t-27.5 14t-31 27t-23.5 46t-10.5 68.5t13 98t42.5 130.5q3 6 7 16l-26 -32.5l-57.5 -76l-74.5 -103t-62 -98.5t-34 -77q-2 0 -5 1v-1q-19 0 -35 5t-25 12.5t-15.5 15
t-8.5 12.5l-2 5q-20 33 18 128.5t96 194.5t112.5 202.5t60.5 144.5q5 35 -21 35q-56 0 -110.5 -33t-90.5 -78t-58 -88.5t-22 -67.5q0 -27 9 -45t18 -23l9 -4q-39 -20 -73 12.5t-34 87.5q0 64 54 138.5t135.5 126t152.5 51.5q9 0 25 -2q83 -15 83 -120q0 -34 -40.5 -120
t-105.5 -209.5t-95 -190.5q216 348 399 487q62 6 66 -16q1 -1 1 -3l-22 -31t-49.5 -81.5t-64 -122.5t-53.5 -147t-29 -162q1 1 1 4q35 85 102 201.5t145.5 229t161.5 190.5t138 78z" />
    <glyph glyph-name="X" unicode="X" horiz-adv-x="660" 
d="M976 727q35 0 60 -7.5t35.5 -18.5t15.5 -22t5 -19v-7q-51 9 -115.5 -17.5t-139.5 -86.5t-138.5 -120.5t-146.5 -147.5q-1 -54 0.5 -93t6.5 -84t15.5 -75.5t30 -56t46.5 -37.5q14 -6 32 -6t29 3l10 3q0 -47 -95 -47q-151 0 -166 296l-99.5 -104.5l-80.5 -79.5t-76 -63
t-50 -19q-34 0 -51.5 16t-18.5 32l-1 15q19 -10 54 9.5t85.5 67.5t99.5 99.5l118 126.5l18 20q1 57 7 167.5t4 144.5q-3 46 -18 46q-42 0 -82 -35.5t-65 -86.5t-44.5 -107.5t-20.5 -98t8 -58.5q-19 -8 -49.5 16.5t-30.5 58.5q0 39 17.5 98t48.5 120.5t83.5 105t113.5 43.5h2
q41 -1 67.5 -25t38 -71t14.5 -95t2 -119q140 149 245 234t176 85z" />
    <glyph glyph-name="Y" unicode="Y" horiz-adv-x="683" 
d="M970 720q19 0 30.5 -10t13.5 -20l2 -9q-82 -38 -151 -108t-115.5 -150.5t-88 -169l-77.5 -169.5t-73.5 -146t-86.5 -104t-108 -39q-36 0 -59.5 19.5t-31.5 50.5q-3 12 -3 25q0 27 18.5 48t56.5 21q-23 -20 -28.5 -41t4 -34t27.5 -13q12 0 21 5q31 14 66.5 68.5
t85.5 151.5q-76 -81 -115 -81q-63 0 -97 44q-28 37 -28 103q0 40 34 114t75 141.5t75 131t34 84.5q0 14 -13 14q-29 0 -80 -28t-98 -71.5t-70.5 -95.5t3.5 -100q-3 -6 -14.5 -8t-26.5 2t-29.5 13.5t-24.5 30t-10 48.5q0 37 30 85t78 91.5t117 74t138 31.5h4q49 0 78 -40
t12 -99q-5 -16 -29.5 -59l-54 -92t-61.5 -108t-52 -107t-25 -89t18 -55q9 0 28 16q69 58 254 301q86 154 170.5 243t176.5 89z" />
    <glyph glyph-name="Z" unicode="Z" horiz-adv-x="687" 
d="M863 629q0 -53 -31 -106t-84.5 -98t-113 -82t-126.5 -68v-1q97 -29 97 -123q0 -72 -39 -137t-95.5 -106t-115 -64.5t-103.5 -23.5q-66 0 -115 34.5t-49 95.5q0 12 3 22q9 32 41.5 61t71 43.5t76 20.5t56.5 -7q-83 -14 -138 -77q-46 -53 -29 -88q8 -18 34 -25q20 -4 33 -4
q67 0 133 52.5t102.5 115t38.5 103.5v3q0 62 -89 68q-103 -38 -146 -38q-45 0 -69 15t-26 29l-2 15q84 -7 226.5 60.5t252.5 159.5t110 148q0 12 -4 20q-9 16 -32.5 22t-69.5 6q-66 0 -155 -31t-153 -75t-64 -76q0 -18 9 -35.5t18 -26.5l9 -9q-73 0 -101.5 31t-28.5 69
q0 12 17 37t56.5 57.5t93 61t136 48.5t176.5 20q46 0 89 -12q100 -29 100 -105z" />
    <glyph glyph-name="asciicircum" unicode="^" horiz-adv-x="467" 
d="M444 708q2 -16 -6.5 -30t-17.5 -20l-10 -6q-31 40 -74.5 79.5t-71.5 58.5l-28 20h-1q-34 -47 -83.5 -87.5t-81.5 -56.5l-33 -17q-22 2 -30 13.5t-5 21.5l4 11q68 39 125 87t80 76l23 29q2 -1 38 -22q61 -37 104 -76.5t56 -60.5z" />
    <glyph glyph-name="underscore" unicode="_" horiz-adv-x="26" 
d="M-868 -57q80 0 178.5 -19t98.5 -33q0 -8 -5.5 -11.5t-10.5 -2.5l-5 1q-49 12 -109 16t-112.5 0.5t-96.5 -9t-74 -10.5t-31 -5h-6h-7.5t-7.5 0.5t-8.5 1.5t-7.5 3t-6.5 5t-4 7.5t-1.5 10.5q0 22 79.5 33.5t136.5 11.5z" />
    <glyph glyph-name="grave" unicode="`" horiz-adv-x="221" 
d="M89 808q6 -9 35.5 -40.5l54 -58.5t24.5 -32q0 -10 -6.5 -19.5t-12.5 -13.5l-7 -4q-41 25 -72 52t-42 41l-11 14q0 25 9.5 40.5t18.5 18.5z" />
    <glyph glyph-name="a" unicode="a" horiz-adv-x="477" 
d="M419 246l33 -18q-43 -87 -111 -160q-64 -69 -114 -69q-65 0 -89 62q-8 22 -8 47v1q0 -1 -1 -2t-1 -2q0 2 0.5 6.5t1.5 6.5q-1 -2 -1.5 -6.5t-0.5 -6.5q-83 -106 -150 -106q-38 0 -67 33t-34 60q-1 7 -1 19q0 76 86.5 161.5t147.5 85.5q67 0 114 -55v-1q-1 -2 -3.5 -5
t-3.5 -4q1 1 3.5 4t3.5 5q53 56 73 56q32 0 51.5 -15t23.5 -29l4 -15q-69 -17 -108.5 -72.5t-36.5 -102.5q2 -13 5 -19q3 -9 12 -14q4 -2 12 -2t13 2q24 9 60.5 47.5t60.5 73.5zM213 288q-1 -1 -2 -2.5t-1 -2.5q0 1 1 2.5t2 2.5zM198 266zM-17 70q67 16 208 193q1 1 2 3l1 1
h1q-20 22 -52 22q-25 0 -45 -10q-64 -27 -111 -110q-36 -64 -27 -92q3 -9 12 -9q3 0 11 2zM134 130q-1 -2 -3 -8q2 6 3 8zM175 230l-2 -4zM161 204q0 -1 -0.5 -2.5t-1.5 -2.5q1 1 1 2q1 2 1 3zM156 193q-2 -4 -2 -6q0 2 2 6z" />
    <glyph glyph-name="b" unicode="b" horiz-adv-x="421" 
d="M18 310l-6 -9q-6 -8 -16 -24l2 2q-5 -5 -11 -13q6 8 11 13q78 78 125 81h3q11 0 38 -16q24 2 38 -4q10 -4 18 -10.5t12 -13t6.5 -13.5t3 -13.5t0 -11t-1.5 -8.5v-5q0 -15 -17 -55.5t-46.5 -88.5t-79 -84t-103.5 -36q-51 0 -73 20t-26 59v16q1 7 5 14q-4 -7 -5 -14
q-1 2 -1 6q-15 -36 -21 -62.5t-5 -35.5l2 -8q-150 0 -8 245q31 52 74 114q175 251 286 251q26 0 50 -16t30 -36q2 -10 2 -20q0 -37 -26.5 -65t-61.5 -45.5l-94 -48.5t-102 -63zM233 545q-4 2 -22 -12t-49.5 -46.5t-66.5 -74.5h1l2 1q42 25 72 47t43 36.5t18.5 25.5t5 16
t-2.5 7h-1zM-94 125q-1 -1 -2.5 -4.5t-2.5 -5.5q1 2 2.5 5.5t2.5 4.5zM-65 187q-4 -8 -6 -13q2 5 6 13zM128 301q-24 0 -80.5 -49.5t-97.5 -103.5q-2 -78 30 -78q3 0 9 2q41 10 96 86t59 120q2 23 -16 23zM-36 233q3 6 11 16q-8 -10 -11 -16z" />
    <glyph glyph-name="c" unicode="c" horiz-adv-x="374" 
d="M337 245l33 -17q-81 -161 -200 -209q-25 -10 -50 -15q-25 -4 -53 -4q-54 0 -93.5 22t-52.5 62q-5 18 -5 37q0 43 19 82t47 65.5t61.5 47t62.5 30t49 9.5q44 0 79.5 -26t35.5 -61q0 -29 -30.5 -60t-70 -43.5t-77.5 3.5q-3 0 -4 2t0.5 4.5t3.5 3.5q104 55 104 120
q-68 0 -121.5 -46t-65.5 -97q-1 -2 -1 -5q-2 -10 -2 -14q0 -32 20.5 -47.5t71.5 -15.5q9 0 14 1q36 3 72 22t62.5 43.5t47.5 48.5t32 40z" />
    <glyph glyph-name="d" unicode="d" horiz-adv-x="461" 
d="M316 308l-2 -2q-125 -185 -118 -212v-1q1 -1 1 -2q3 -2 9 -2h10q36 6 82 45.5t74 75.5l28 37l33 -16q-50 -101 -119 -168q-62 -62 -112 -62q-86 0 -95 72q-1 6 -1 19h-1q-94 -92 -139 -92q-37 0 -64 30t-34 55q-4 18 -4 28q0 50 43 109.5t98.5 98.5t93.5 39q60 0 108 -48
q11 18 32 48q175 251 284 251q28 0 53 -17t29 -41q1 -4 1 -13q0 -33 -41.5 -68.5t-129.5 -88.5t-118 -74q-1 0 -1 -1zM535 550q-5 1 -22 -12.5t-46.5 -44t-62.5 -69.5q-6 -8 -8 -10q58 35 93.5 67.5t43.5 48.5t4 20h-2zM-30 71q59 12 184 160q2 2 5.5 6.5t5.5 6.5
q10 18 17 28h-1q-21 19 -49 19q-20 0 -42 -8q-65 -25 -113 -110q-37 -65 -28 -93q3 -10 12 -10q1 0 4 0.5t5 0.5zM187 281q2 2 3 4q-1 -2 -3 -4zM202 304q-2 -4 -4 -6q2 2 4 6z" />
    <glyph glyph-name="e" unicode="e" horiz-adv-x="359" 
d="M316 246l32 -17q-43 -80 -90.5 -136.5t-109.5 -79.5q-36 -13 -72 -13q-131 0 -162 84q-6 18 -6 40q0 51 27 97t65.5 74.5t76 45t61.5 16.5q41 0 75 -27.5t36 -59.5v-3q0 -45 -48.5 -90.5t-112.5 -45.5q-67 0 -78 64l-1 -1q-22 -21 -22 -55q0 -13 4 -22q13 -42 86 -42
q16 0 24 1q34 5 69 24.5t60 43.5t45 47.5t31 38.5zM177 294q-77 0 -140 -67l-1 -1q-2 0 -2 -1q6 -19 26 -23.5t39.5 1t37.5 14.5q24 12 34 31.5t8 32.5z" />
    <glyph glyph-name="f" unicode="f" horiz-adv-x="273" 
d="M-26 79q22 3 58 40.5t61 73.5l25 36l33 -16q-47 -82 -85 -130q-55 -69 -112 -69q-12 0 -23 3q-1 0 -3 1h-2q5 -72 5 -154q0 -43 -11 -74t-27 -44t-32 -20t-27 -7h-11q-61 0 -92 41q-29 38 -29 98q0 114 124 349q67 125 138.5 198.5t110.5 91.5q13 6 54.5 -2t46.5 -23
q0 -1 0.5 -2.5t0.5 -2.5q8 -28 -5 -59.5t-36 -55.5t-50 -39.5t-45 -14.5q64 81 70 126v2q-129 -135 -207 -269q36 -79 66 -79h2q1 1 2 1zM-169 -227q5 4 9 13.5t7 24t5 29t4 37l3.5 39t2.5 43.5t1.5 43t1.5 44t1 40v1v1q-72 -146 -72 -249q0 -29 7.5 -49.5t21.5 -20.5
q4 0 8 4z" />
    <glyph glyph-name="g" unicode="g" horiz-adv-x="471" 
d="M366 250l32 -17q-59 -123 -136.5 -189t-182.5 -105h-1q-51 -106 -107 -154.5t-89 -48.5q-36 0 -66 21t-29 75q-1 1 -2 3.5t-1 3.5q-11 44 50 82.5t165 68.5v1q21 37 39 75q-67 -65 -113 -65q-59 0 -93 72q-9 22 -9 41q0 50 43 109.5t98.5 98t93.5 38.5q68 0 113 -55
q1 2 3 4l-6 -9q0 -1 -1 -2.5t-2 -2.5l5 7.5t4 6.5q41 51 65 51q33 0 68 -36q21 -21 9 -22q-39 -3 -92.5 -78t-109.5 -203q64 23 127 80t94 103zM-120 -171q26 14 62 66q-1 -1 -2 -1q-75 -32 -95 -63q-8 -13 5 -12q4 0 9 2q7 1 21 8zM144 261l9 14t10 17l-15 -25q-2 -4 -4 -6
zM-80 71q4 0 16 2q30 9 78 53t75.5 75.5l50.5 59.5q2 4 5 7v1q-21 24 -54 24q-8 0 -22 -2q-68 -15 -124 -102q-42 -66 -38 -103q1 -15 13 -15z" />
    <glyph glyph-name="h" unicode="h" horiz-adv-x="422" 
d="M303 247l33 -17q-1 -1 -9 -15.5l-14 -24.5t-18 -28.5t-22.5 -33t-25 -32.5t-28.5 -32q-62 -64 -114 -64q-19 0 -45 18.5t-34 51.5q-3 12 -3 24q0 54 102 185l8 10q-56 -36 -99 -73t-70 -70.5t-42 -56t-28.5 -48t-15.5 -29.5q-2 -8 0 -13q-150 0 -8 245q31 52 74 114
q175 251 285 251q27 0 50.5 -15.5t29.5 -36.5q3 -8 3 -19q0 -37 -26.5 -65.5t-61.5 -46l-94 -48.5t-102 -63l-2 -2l-6 -9q-12 -16 -17 -24l2 2q-28 -33 -51 -74q60 65 118 108.5t87 43.5h3l3 -1q1 -1 1 -4q0 3 -1 4q15 -1 39 -18t24 -43q0 -19 -47.5 -97.5t-41.5 -96.5
q3 -9 18 -9q1 0 3 0.5t3 0.5q22 6 57 43.5t59 72.5zM241 548q-4 2 -22 -12t-49.5 -46.5t-66.5 -74.5q1 0 1 0.5t1 0.5q43 25 72.5 47.5t42.5 36.5t19 25t5 16t-3 7zM158 326q-6 -12 -10 -17q4 5 10 17z" />
    <glyph glyph-name="i" unicode="i" horiz-adv-x="241" 
d="M159 371q-25 0 -43 17.5t-18 43.5t18 43.5t43 17.5q26 0 44 -18t18 -43t-18 -43t-44 -18zM193 249l32 -17q-46 -94 -119 -167q-67 -65 -118 -65q-35 0 -59 20.5t-33 54.5q-4 16 -4 38q0 43 23 90.5t52.5 81t56.5 56t37 22.5q32 0 46.5 -14.5t13.5 -29.5l-1 -15
q-42 -24 -74.5 -69.5t-42.5 -87.5q-8 -33 2 -52q3 -7 7 -9q8 0 12 1q35 6 77 46.5t67 78.5z" />
    <glyph glyph-name="j" unicode="j" horiz-adv-x="219" 
d="M-142 251l32 -17q-59 -123 -137 -189t-182 -104l-1 -1q-51 -106 -107 -154.5t-89 -48.5q-36 0 -66 21t-29 75q-1 1 -2 3.5t-1 3.5q-11 44 49.5 82.5t165.5 68.5q0 1 1 1l41 82v1q24 37 64 114t69 121q42 52 65 52q33 0 68 -36q21 -22 9 -23q-39 -2 -92.5 -77t-109.5 -204
q64 23 127 80t94 103zM-628 -170q26 14 62 66h-1l-1 -1q-77 -32 -95 -62q-8 -14 7 -13q3 1 8 2q7 1 20 8zM-175 357q-26 0 -44 18t-18 43q0 26 18.5 44t43.5 18t43 -18t18 -44t-18 -43.5t-43 -17.5z" />
    <glyph glyph-name="k" unicode="k" horiz-adv-x="397" 
d="M278 249l33 -17q-4 -9 -12.5 -24.5t-35.5 -55.5t-55 -70t-69.5 -55t-82.5 -25q-85 0 -135 74q-11 16 -19 36q-2 -8 -4 -12q-7 -13 -16.5 -50.5t-7.5 -48.5q-160 0 12 276q24 39 54 82q174 251 285 251q27 0 50.5 -15.5t30.5 -36.5q2 -10 2 -19q0 -37 -26.5 -65.5
t-61.5 -46l-94 -48.5t-102 -63h-1l-1 -1q0 -1 -5 -8q13 10 14 11q55 41 98 42q2 1 6 1q81 0 83 -55q2 -50 -54 -106q-65 -64 -137 -63q-30 1 -55 15l-14 9q42 -79 122 -79q18 0 35 6q22 7 43 22t40.5 36t32 37t28.5 39t19 27zM237 550q-4 2 -22 -12.5t-49.5 -47t-66.5 -74.5
l2 1q43 25 72.5 47t43 36.5t19 25.5t5 16t-2.5 7q-1 0 -1 1zM125 303q-1 20 -64 -13q-76 -41 -108 -85q0 -2 2 -6q8 -17 30 -17q35 0 81.5 40t56.5 71q2 8 2 10z" />
    <glyph glyph-name="l" unicode="l" horiz-adv-x="219" 
d="M76 306q0 -1 -1 -2q-127 -181 -119 -211l2 -4q4 -2 9 -2h3q36 2 83.5 41.5t77.5 77.5l30 39l32 -16q-46 -96 -119 -168q-60 -62 -112 -62q-86 0 -95 74q-1 6 -1 17q7 63 49 139l11 17q10 18 26 44.5t40 61l50 69.5t57 69t61 60.5t63 42.5t61 16t53 -17t29 -41
q0 -2 0.5 -6t0.5 -7q0 -25 -31 -56.5t-69 -55l-98 -60t-91 -58.5zM336 558q-2 0 -6.5 -0.5t-7.5 -0.5q3 0 7.5 0.5t6.5 0.5zM296 548q-5 1 -22.5 -12.5t-47 -44t-61.5 -69.5q-4 -4 -8 -10q58 35 93 67.5t43 48.5t4 20h-1z" />
    <glyph glyph-name="m" unicode="m" horiz-adv-x="669" 
d="M629 248l33 -18q-80 -139 -147 -192q-47 -37 -88 -37q-23 0 -52 24.5t-29 68.5v1q0 25 21.5 66.5t40.5 69t34 46.5q2 3 7 8q8 10 12 16q-4 -6 -12 -16q-5 -5 -7 -8l4 6q-84 -58 -149 -147.5t-75 -122.5q-11 8 -30.5 18.5t-29 20t-13.5 23.5q-3 7 -3 19q0 28 22 73t44 77
l23 31q-1 -1 -3.5 -3t-3.5 -3q-52 -46 -93 -91.5t-61.5 -75.5t-35.5 -54t-24 -35.5t-17 -11.5q-28 0 -52 27.5t-31 61.5q-2 7 -2 20q0 43 23 90.5t52.5 81t56.5 56t37 22.5q32 0 46.5 -15t12.5 -29l-1 -15q-36 -20 -68 -64.5t-49 -90.5v-1q64 78 142 146.5t103 68.5h3
q25 0 48.5 -23t23.5 -39q0 -15 -21 -52q-1 -1 -1 -2q49 51 94 83.5t61 32.5h7q23 0 45.5 -23t22.5 -39q0 -19 -45.5 -93t-43.5 -95q0 -14 18 -14h1q22 0 59.5 38t63.5 76z" />
    <glyph glyph-name="n" unicode="n" horiz-adv-x="474" 
d="M432 247l33 -17q-75 -128 -129 -178q-54 -51 -102 -51q-20 0 -45.5 18t-33.5 50q-3 12 -3 25q0 28 27 77t55 84l27 35l-2 -2q-56 -36 -99 -73t-70 -71.5t-40.5 -55t-27.5 -47.5q-22 -38 -30 -40h-3q-23 1 -44 22.5t-31 38.5q-12 19 -12 54q0 43 23 90.5t53 81t57 56
t37 22.5q20 0 33.5 -6t18.5 -14.5t7 -17t1 -14.5l-1 -6q-37 -21 -70 -68t-51 -94q62 85 148 149.5t129 64.5h1q27 0 48 -23t21 -39q0 -18 -38.5 -82t-46.5 -84q-15 -37 13 -37q4 0 5 1q23 4 58.5 42t59.5 74zM293 335q-8 -18 -24 -36q16 18 24 36q0 1 0.5 4t0.5 4
q0 -1 -0.5 -4t-0.5 -4z" />
    <glyph glyph-name="o" unicode="o" horiz-adv-x="383" 
d="M313 249l33 -17q-4 -9 -12 -25t-36 -55t-59 -68.5t-80 -51.5t-101 -18h-2q-1 -1 -2 -1q-28 -11 -52 -11q-52 0 -85 19t-45 44q1 -1 2.5 -2t2.5 -1q-1 0 -2.5 1t-2.5 2q-9 26 -9 57.5t25.5 77.5t73.5 94q34 35 73.5 51t70.5 16h14q42 0 77 -29t35 -71q0 -83 -72 -169
q83 37 153 157zM-110 56q1 -1 3 -1q-2 0 -3 1zM-121 61l1 -1q2 0 2 -1q0 1 -1 1t-2 1zM-76 49h4h-4zM-94 51l2 -1h3h-3zM-89 50q1 0 3 -0.5t3 -0.5q-1 0 -3 0.5t-3 0.5zM-64 49h4h-4zM-53 50q1 0 3 0.5t3 0.5q-1 0 -3 -0.5t-3 -0.5zM-47 51l12 3zM-35 54q3 1 17 6
q-14 -5 -17 -6zM-17 60q6 2 8 4q-2 -2 -8 -4zM-8 64q1 0 2.5 1l3 2t2.5 1q-1 0 -2 -1zM33 89q44 28 79.5 84t37.5 95q2 34 -27 34q-52 0 -109 -72.5t-57 -115.5q0 -34 12 -40q1 0 1 1t1 2q15 17 34 18q9 0 27 -5q-1 -1 -3.5 -3t-3.5 -3q1 1 3.5 3t3.5 3q0 -1 1 -1zM9 73
q1 1 3.5 2.5t3.5 2.5q-1 -1 -3.5 -2.5t-3.5 -2.5zM17 79q1 0 3.5 1.5t3.5 2.5q-1 -1 -3.5 -2.5t-3.5 -1.5z" />
    <glyph glyph-name="p" unicode="p" horiz-adv-x="394" 
d="M115 341q10 -5 17.5 -11t11.5 -13t6.5 -14t3 -13.5t0.5 -11v-8.5l-1 -5q0 -15 -17 -55.5t-46.5 -88.5t-79 -84t-103.5 -36q-49 0 -71 24.5t-25 51.5q0 2 -0.5 4t-0.5 3q0 -2 -2 -4q-59 -111 -88.5 -189.5t-29.5 -101.5l-1 -23q-24 0 -48.5 27t-24.5 61q0 37 33 116.5
t95 182.5q71 116 105.5 161t56.5 46q23 2 39 -2.5t21 -9.5l4 -5q-10 -10 -32 -44l13 17q51 43 85 44h3q32 0 76 -19zM-84 78q45 24 95 100.5t45 109.5q-2 14 -15 14q-24 0 -80.5 -50t-96.5 -104q-1 -4 -1 -12q0 -65 30 -65q12 0 23 7z" />
    <glyph glyph-name="q" unicode="q" horiz-adv-x="390" 
d="M271 360q23 2 40.5 -2.5t24.5 -9.5l6 -5q-38 -27 -161 -259q-38 -71 -64 -129.5t-36.5 -92t-15.5 -57t-5 -31.5l1 -8q-25 0 -49.5 27t-24.5 61q0 56 64 184l21 33l-21 -33l1 1q-47 -38 -80 -38q-58 0 -92 69q-10 20 -10 43q0 76 87 161.5t147 85.5q64 0 110 -50l-1 -1
q-14 -26 -22 -39l-2 2q-19 21 -51 21q-24 0 -48 -11q-64 -28 -110 -112q-36 -65 -25 -91q4 -8 12 -8q9 0 14 2q32 9 84.5 58.5t85 88t40.5 50.5l-50 -85l50 85q21 37 23 40q36 49 57 50zM139 182q-7 -12 -16 -26q9 14 16 26z" />
    <glyph glyph-name="r" unicode="r" horiz-adv-x="402" 
d="M376 263l25 -13q-44 -81 -84 -119q-36 -34 -67 -34q-19 0 -39 13t-26 37q-2 10 -2 17q0 28 17 58t29.5 43t24.5 22l2 2q-67 -43 -116.5 -89.5t-74 -80.5t-39.5 -62t-23.5 -42.5t-16.5 -14.5q-9 0 -17.5 3.5t-15.5 8.5t-14 12t-11 12.5l-8 11.5l-5 5q-19 19 -19 62
t23 90.5t53 81.5t57 56.5t37 22.5q20 0 33.5 -6t18.5 -14.5t7 -17t1 -14.5l-1 -6q-38 -23 -71 -70t-49 -93q0 1 0.5 1t0.5 1q63 85 148.5 149t128.5 64q34 0 48.5 -17.5t14.5 -36.5l-1 -1q-1 -1 -2 -1q-21 -19 -45 -59.5t-22 -59.5q2 -12 15 -12q6 0 19 10q12 11 28.5 31
l27.5 34z" />
    <glyph glyph-name="s" unicode="s" horiz-adv-x="317" 
d="M287 253q15 -4 22 -19l-13.5 -25t-36 -57t-56.5 -73t-72 -61t-84 -34q-3 -1 -10 -1h-9q-50 0 -78.5 28.5t-28.5 54.5v2q1 23 17 43t38 20q24 0 24 -13q-14 0 -22 -12.5t-8 -23.5t6 -17t12 -7l5 -1q7 0 11 1q58 10 46 143q-3 42 -3 73q-1 0 -2 -1q-31 -17 -103 -119
l-7 -10l-21 29l23.5 36.5l25 38.5t23 32t27 32t28 24t33.5 20q32 15 71 15q20 0 38 -5q45 -13 45 -53q0 -24 -13 -35.5t-25 -11.5l-13 1q0 23 -4 31t-18 8q-12 0 -15 -15q-3 -23 -2 -42t4.5 -60.5t3.5 -70.5q0 -16 -1 -24q-1 -2 -1 -7q73 60 143 166z" />
    <glyph glyph-name="s" unicode="&#xdf;" horiz-adv-x="317" 
d="M287 253q15 -4 22 -19l-13.5 -25t-36 -57t-56.5 -73t-72 -61t-84 -34q-3 -1 -10 -1h-9q-50 0 -78.5 28.5t-28.5 54.5v2q1 23 17 43t38 20q24 0 24 -13q-14 0 -22 -12.5t-8 -23.5t6 -17t12 -7l5 -1q7 0 11 1q58 10 46 143q-3 42 -3 73q-1 0 -2 -1q-31 -17 -103 -119
l-7 -10l-21 29l23.5 36.5l25 38.5t23 32t27 32t28 24t33.5 20q32 15 71 15q20 0 38 -5q45 -13 45 -53q0 -24 -13 -35.5t-25 -11.5l-13 1q0 23 -4 31t-18 8q-12 0 -15 -15q-3 -23 -2 -42t4.5 -60.5t3.5 -70.5q0 -16 -1 -24q-1 -2 -1 -7q73 60 143 166z" />
    <glyph glyph-name="t" unicode="t" horiz-adv-x="262" 
d="M256 432q3 2 6 2.5t5 -0.5l2 -1q1 -3 2 -8t0.5 -17t-4.5 -21.5t-16.5 -17.5t-32.5 -8q-23 0 -71 4q-28 -33 -47 -59q-26 -37 -46 -71.5t-34 -68.5t-11 -56.5t26 -26.5q1 0 3 1q24 6 51.5 25t49 42t39.5 45t28 37l10 15l33 -17q-65 -119 -136 -174.5t-130 -55.5
q-36 0 -57.5 23t-23.5 47q-7 101 123 290q1 1 13 16q-24 2 -33 2q-21 -2 -31 -10t-11.5 -14.5t-2.5 -6.5q-21 -2 -28 20q-10 29 18 45q19 11 49 11q25 0 71 -2q43 56 74 85t47 34.5t39 5.5q28 0 43.5 -15t16.5 -30l2 -15q-43 -14 -102 -72q15 -1 40 -1q7 0 12 3.5t9 8.5t5 6
z" />
    <glyph glyph-name="u" unicode="u" horiz-adv-x="449" 
d="M406 250l32 -17q-52 -104 -126 -174q-60 -58 -110 -58q-62 0 -76 58v-1q-23 -24 -57 -40.5t-63 -16.5q-82 0 -105 68q-7 17 -7 41q0 43 23 90.5t53 81.5t57 56.5t38 22.5q20 0 33 -6t18 -15t7 -18t1 -15l-1 -6q-68 -52 -99 -103.5t-31 -89.5q0 -7 1 -13t2 -10t3 -6.5
t3.5 -4t3 -2t2.5 -0.5l1 -1q12 0 21 4q52 17 103 110q1 3 3 7.5t3 6.5v0l15 28q31 52 74.5 93t58.5 41q32 0 46.5 -15t12.5 -30l-1 -15q-53 -30 -88.5 -91t-30.5 -102q0 -3 2 -9q10 -8 28 -4q28 8 65.5 46.5t60.5 73.5zM134 183v-3v3z" />
    <glyph glyph-name="v" unicode="v" horiz-adv-x="403" 
d="M279 356q18 0 43 -16.5t24 -43.5q-1 -40 -54 -111.5t-121 -127.5t-106 -56q-31 0 -61.5 20.5t-39.5 49.5q-10 31 -9 76q1 37 17 78t37 70t41 48t29 19q28 -1 43 -13t16 -24l1 -12q-41 -20 -67 -76.5t-34 -104.5q-8 -42 8 -58v-1q51 35 94 77t67.5 77t42 65t23.5 47z" />
    <glyph glyph-name="w" unicode="w" horiz-adv-x="547" 
d="M397 360q15 10 48.5 -5t33.5 -54q0 -62 -61 -160.5t-135 -129.5q-23 -10 -49 -10q-74 0 -88 39q-2 8 -2 12q-49 -51 -87 -51q-31 0 -61 20t-40 48q-10 30 -10 78q1 37 17.5 78t37.5 70t41 48t29 19q28 -1 42.5 -13t15.5 -24l1 -12q-41 -20 -66 -75.5t-34 -105.5
q-3 -21 -1.5 -34.5t5.5 -19.5l4 -5q2 0 8 2q35 15 93.5 112t63.5 149v-7v7v7q13 8 41.5 -3t28.5 -39q0 -31 -23 -91q-38 -108 -30 -130q1 -7 7 -7q2 0 10 2q31 9 72.5 65.5t68.5 122t19 97.5zM203 317v-8v8zM194 263q-5 -22 -21 -69t-23.5 -83t-3.5 -70q-4 34 3.5 70
t23.5 83t21 69zM203 305q-1 -1 -1 -4t-1 -5q1 2 1 5t1 4zM199 286q0 -4 -1 -6q1 2 1 6zM198 278q-1 -2 -1 -7q0 5 1 7zM196 270q0 -1 -0.5 -3t-0.5 -4q0 2 0.5 4t0.5 3z" />
    <glyph glyph-name="x" unicode="x" horiz-adv-x="544" 
d="M506 247q30 0 37 -15q-1 -16 -40 -75t-85 -101q-60 -55 -112 -55q-44 0 -90 65q-18 24 -39 63l-18.5 -18l-20.5 -19.5l-20 -18.5t-22 -19.5t-21.5 -16.5t-23.5 -15t-22.5 -10.5t-24 -8t-23.5 -2.5q-27 0 -44.5 19t-21.5 34q-1 7 0 16q1 11 9 16t15 4h7q-8 -6 -5.5 -19
t12.5 -15q3 -2 6 0q6 1 14.5 5t21 13t23 17.5t28.5 24.5l29 26l33 30l33 30l-17.5 41l-14 34t-6.5 13q-10 13 -18 13q-9 0 -20 -6.5t-24.5 -21t-24 -27.5l-29.5 -37l-31 -39l-31 17q67 126 102 156h3h-3q19 16 37 16q47 0 76 -16.5t60 -72.5q1 -1 1 -2q0 1 -1 2q1 -2 3 -5.5
t3 -5.5q129 111 179 105q10 -1 21.5 -5t18.5 -7l7 -4q34 -6 35 -30q-21 1 -41 -10q-34 -8 -181 -122q52 -89 67 -98q12 -6 23 -6h3l1 1q30 3 75.5 42.5t91.5 119.5zM78 329q4 -4 8 -10q-4 6 -8 10z" />
    <glyph glyph-name="y" unicode="y" horiz-adv-x="446" 
d="M79 229l1 1q-1 0 -1 -1zM322 258l32 -17q-59 -124 -136.5 -190t-182.5 -104h-1q-27 -56 -57.5 -98.5t-57.5 -63.5t-47 -31t-34 -10q-36 0 -66 21t-29 75q-1 1 -2 3.5t-1 3.5q-11 43 50 82t165 69q1 0 1 1q4 7 12 23q-44 -28 -70 -28q-35 0 -59 21t-33 47q-6 18 -6 40
q0 43 23 90.5t53 81.5t57 56.5t37 22.5q32 0 46.5 -15t13.5 -30l-1 -15q-68 -52 -99 -103.5t-31 -89.5q0 -10 1.5 -17.5t3.5 -11t4.5 -5.5t3.5 -2l2 -1q13 0 22 4q29 9 74.5 65t68.5 97v-1q26 50 51 89q41 51 66 51q33 0 67 -35q21 -22 9 -23q-39 -3 -92.5 -78t-109.5 -203
q64 23 127 80t94 103zM-164 -163q26 14 62 66q0 -1 -2 -1q-76 -33 -95 -63q-7 -12 4 -12q5 0 11 2q7 1 20 8z" />
    <glyph glyph-name="z" unicode="z" horiz-adv-x="325" 
d="M254 248l33 -17q-67 -118 -127 -167h-1q-11 -41 -23 -68q-28 -61 -80 -104.5t-93 -43.5t-82.5 28.5t-41.5 57.5q0 1 -0.5 3t-0.5 4q0 92 214 131q13 2 31 9q10 35 10 53q-2 21 -12 21q-23 0 -44.5 -23t-29.5 -44q-17 0 -37 20.5t-23 35.5v6q0 19 29.5 56t59.5 64l30 27
l-1 1h-2q-26 2 -64.5 -31.5t-63.5 -68.5l-25 -34q-10 1 -16.5 7t-8.5 11l-2 5q33 63 56 98.5t49 54t49 23t63 4.5q24 0 43 -8t29 -19.5t16.5 -23t8.5 -19.5l2 -8h-4q-85 -21 -118 -74q1 1 2 1q37 9 61 -19.5t26 -59.5l1 1h1q23 22 44.5 49.5t31.5 44.5zM-47 -77q55 20 98 90
q-36 -8 -71 -19q-84 -29 -86 -61q2 -15 18 -18q20 0 41 8z" />
    <glyph glyph-name="asciitilde" unicode="~" horiz-adv-x="510" 
d="M484 341q27 0 27 -25q0 -26 -33 -56t-90 -30q-46 0 -111.5 23t-91.5 23q-27 0 -44.5 -6.5t-23 -14t-5.5 -15.5q0 1 -2.5 0t-6 0.5t-7 4t-6 9.5t-2.5 17q0 29 30 49.5t82 20.5q29 0 95 -25.5t93 -25.5q24 0 48 13t36 25z" />
    <glyph glyph-name="nbspace" unicode="&#xa0;" horiz-adv-x="306" 
 />
    <glyph glyph-name="Agrave" unicode="&#xc0;" 
d="M1113 806q-15 -25 -37 -25q-5 0 -32 24.5l-58.5 55.5t-38.5 37q0 1 1 3.5t4.5 8.5t9.5 10.5t18.5 8.5t28.5 4q49 -34 104 -127zM1143 739q24 0 41 -4.5t24.5 -10.5t11.5 -12.5t4 -11.5l1 -4q-74 -51 -177.5 -222t-175.5 -338t-72 -225q-19 -15 -53.5 9t-34.5 66
q0 24 27 92q-12 91 -62 144q-418 -337 -498 -337q-48 0 -72.5 20t-25.5 40l-1 20q234 83 531 303q-40 18 -88 22.5t-77 -0.5l-28 -4q0 23 6.5 42.5t16 31t19.5 19t16 10.5l7 3q119 0 198 -71q170 133 336 291q85 127 126 127zM775 164q47 107 115 234l-160 -133
q31 -47 45 -101z" />
    <glyph glyph-name="Aacute" unicode="&#xc1;" 
d="M1032 775q-10 0 -19 6.5t-13 12.5l-5 6q25 41 51 73t40 43l14 11q16 0 28 -3.5t18 -8.5t10 -10.5t5 -8.5l1 -4q-8 -7 -39.5 -37.5l-58.5 -55t-32 -24.5zM1143 733q24 0 41 -4.5t24.5 -10.5t11.5 -12.5t4 -11.5l1 -4q-74 -51 -177.5 -222t-175.5 -338t-72 -225
q-19 -15 -53.5 9.5t-34.5 66.5q0 22 27 92q-13 92 -62 143q-421 -337 -498 -337q-48 0 -72.5 20t-25.5 40l-1 20q234 83 531 303q-40 18 -88 22.5t-77 -0.5l-28 -4q0 24 6.5 43.5t16 30.5t19.5 18.5t16 10.5l7 3q120 0 198 -70q175 136 336 291q86 126 126 126zM775 159
q43 98 115 234l-160 -133q31 -47 45 -101z" />
    <glyph glyph-name="Acircumflex" unicode="&#xc2;" 
d="M937 793q-22 2 -30 13.5t-5 21.5l4 11q45 31 83.5 65.5t54.5 53.5l16 20q4 -2 17.5 -10t20.5 -13q32 -28 57.5 -54.5t34.5 -38.5l10 -13q2 -16 -7 -30t-19 -20l-9 -6q-31 40 -57 67t-36 34l-11 7v-1q-35 -47 -66 -74t-45 -30zM1143 739q24 0 41 -4.5t24.5 -10.5
t11.5 -12.5t4 -11.5l1 -4q-74 -51 -177.5 -222t-175.5 -338t-72 -225q-19 -15 -53.5 9t-34.5 66q0 24 27 92q-12 91 -62 144q-418 -337 -498 -337q-48 0 -72.5 20t-25.5 40l-1 20q234 83 531 303q-40 18 -88 22.5t-77 -0.5l-28 -4q0 23 6.5 42.5t16 31t19.5 19t16 10.5l7 3
q119 0 198 -71q170 133 336 291q85 127 126 127zM775 164q47 107 115 234l-160 -133q31 -47 45 -101z" />
    <glyph glyph-name="Atilde" unicode="&#xc3;" 
d="M825 806h-7t-11 7.5t-7 23.5q0 29 30.5 49.5t82.5 20.5q29 0 94.5 -25.5t92.5 -25.5q25 0 49 13t36 25l12 13q26 0 26 -25q0 -26 -33 -56t-90 -30q-45 0 -110.5 22.5t-91.5 22.5q-27 0 -44.5 -6.5t-23 -13.5t-5.5 -15zM1143 733q24 0 41 -4.5t24.5 -10.5t11.5 -12.5
t4 -11.5l1 -4q-74 -51 -177.5 -222t-175.5 -338t-72 -225q-19 -15 -53.5 9.5t-34.5 66.5q0 22 27 92q-13 92 -62 143q-421 -337 -498 -337q-48 0 -72.5 20t-25.5 40l-1 20q234 83 531 303q-40 18 -88 22.5t-77 -0.5l-28 -4q0 24 6.5 43.5t16 30.5t19.5 18.5t16 10.5l7 3
q120 0 198 -70q175 136 336 291q86 126 126 126zM775 159q43 98 115 234l-160 -133q31 -47 45 -101z" />
    <glyph glyph-name="Adieresis" unicode="&#xc4;" 
d="M951 832q-17 0 -29 12.5t-12 29.5t12 30t29 13t29.5 -13t12.5 -30t-12.5 -29.5t-29.5 -12.5zM1096 832q-18 0 -30 12.5t-12 29.5q0 18 12 30.5t30 12.5q16 0 28.5 -13t12.5 -30t-12 -29.5t-29 -12.5zM1143 739q24 0 41 -4.5t24.5 -10.5t11.5 -12.5t4 -11.5l1 -4
q-74 -51 -177.5 -222t-175.5 -338t-72 -225q-19 -15 -53.5 9t-34.5 66q0 24 27 92q-12 91 -62 144q-418 -337 -498 -337q-48 0 -72.5 20t-25.5 40l-1 20q234 83 531 303q-40 18 -88 22.5t-77 -0.5l-28 -4q0 23 6.5 42.5t16 31t19.5 19t16 10.5l7 3q119 0 198 -71
q170 133 336 291q85 127 126 127zM775 164q47 107 115 234l-160 -133q31 -47 45 -101z" />
    <glyph glyph-name="Aring" unicode="&#xc5;" 
d="M961 672q-57 0 -84 49q-8 14 -8 37q0 65 41.5 105t86.5 40h15q30 0 56.5 -22.5t26.5 -56.5q0 -61 -42.5 -106.5t-91.5 -45.5zM1007 864q-31 -6 -53.5 -40.5t-22.5 -63.5q0 -36 21 -37h1q20 0 51 33.5t31 75.5q0 10 -4 20q-3 8 -9 11t-10 2zM1143 733q24 0 41 -4.5
t24.5 -10.5t11.5 -12.5t4 -11.5l1 -4q-74 -51 -177.5 -222t-175.5 -338t-72 -225q-19 -15 -53.5 9.5t-34.5 66.5q0 22 27 92q-13 92 -62 143q-421 -337 -498 -337q-48 0 -72.5 20t-25.5 40l-1 20q234 83 531 303q-40 18 -88 22.5t-77 -0.5l-28 -4q0 24 6.5 43.5t16 30.5
t19.5 18.5t16 10.5l7 3q120 0 198 -70q175 136 336 291q86 126 126 126zM775 159q43 98 115 234l-160 -133q31 -47 45 -101z" />
    <glyph glyph-name="AE" unicode="&#xc6;" horiz-adv-x="1549" 
d="M1583 763q9 -33 9 -56t-4 -29l-5 -7q-36 34 -120.5 48t-170.5 9t-146 -22q-63 -79 -139 -212q118 11 227.5 -3t121.5 -57q10 -33 10 -56.5t-5 -29.5l-5 -7q-33 32 -109 46.5t-155.5 12t-143.5 -16.5q-71 -139 -113 -251q54 17 155 22t193 -11.5t103 -53.5q9 -33 9 -56.5
t-5 -30.5l-4 -6q-42 40 -147.5 52.5t-203.5 0t-134 -37.5q-1 -4 -1 -10q-19 -15 -53.5 9t-34.5 66q0 24 27 92q-12 91 -62 144q-418 -337 -498 -337q-48 0 -72.5 20t-25.5 40l-1 20q230 80 531 303q-40 18 -88 22.5t-77 -0.5l-28 -4q0 23 6.5 42.5t16 31t19.5 19t16 10.5
l7 3q119 0 198 -71q170 133 336 291q85 127 126 127q31 0 53 -9q74 7 156 8.5t152 -16t79 -49.5zM730 355q31 -47 45 -101q33 77 88 182q3 13 11 23q2 5 7.5 14.5l8.5 14.5z" />
    <glyph glyph-name="Ccedilla" unicode="&#xc7;" horiz-adv-x="554" 
d="M399 368q65 17 116 45.5t80.5 59t48 63t24 57t2.5 40.5q-1 11 -8 16q-77 0 -165 -67t-154 -159.5t-110.5 -188.5t-44.5 -155q0 -41 17.5 -72t58.5 -31q5 0 19 2q58 13 146.5 86t162.5 154q28 -6 38 -8q-51 -89 -157 -192t-188 -119q8 -8 13 -12q43 -34 43 -82
q0 -27 -18 -46t-48 -21h-6q-30 0 -45 18t-15 40q0 16 9 25t19 9l9 -3q2 -3 0 -8q-4 -9 1 -18.5t20 -9.5q21 0 21 25v2q-1 13 -23.5 38t-25.5 41q-48 5 -84.5 34t-53.5 75q-13 33 -13 78q0 68 33.5 155t90.5 170.5t125 154.5t146 114.5t146 43.5h11q23 0 40 -5t36.5 -17.5
t30 -41t10.5 -70.5q0 -59 -48.5 -121t-110 -98.5t-104.5 -36.5q-37 0 -61 9t-29 18z" />
    <glyph glyph-name="Egrave" unicode="&#xc8;" horiz-adv-x="590" 
d="M628 746q-15 -26 -38 -26q-5 0 -31.5 25l-57.5 55t-40 37q0 1 1 3.5t4.5 9t9.5 11t18.5 8.5t28.5 4q49 -34 105 -127zM400 342q57 0 121 53.5t102 121t29 107.5q0 1 -1 3t-1 3q-60 0 -121 -32t-107 -78.5t-84 -99.5t-59 -95t-26 -64q63 40 127 40q27 0 47 -7t29.5 -16.5
t15 -19t6.5 -16.5l1 -7q-65 8 -123 -14t-95 -61t-58.5 -82.5t-21.5 -80.5q0 -33 43 -40q14 -3 32 -3q68 0 122.5 52t62.5 110q0 2 0.5 7t0.5 7q-45 7 -104 -44t-59 -83q-18 38 -7.5 71t39 57.5t59 39t50.5 16.5h5q38 2 65.5 -18t27.5 -51q0 -79 -85 -157.5t-171 -78.5
q-78 0 -124 38.5t-50 93.5v10q0 36 32.5 94.5t83.5 105.5q-23 52 -8.5 113.5t62.5 125t106.5 115t123 84t113.5 32.5q18 0 28 -1q110 -11 110 -95q0 -43 -39 -115.5t-96.5 -130.5t-101.5 -58q-26 0 -46 5t-30 12t-16.5 14t-7.5 12z" />
    <glyph glyph-name="Eacute" unicode="&#xc9;" horiz-adv-x="632" 
d="M652 715q-10 0 -19.5 6.5t-13.5 12.5l-4 7q24 41 50 73t40 43l14 11q25 0 40.5 -9t18.5 -18l3 -9q-8 -6 -39 -36.5l-58 -55.5t-32 -25zM629 688q110 -9 110 -94q0 -43 -39 -115.5t-96.5 -131t-101.5 -58.5q-41 0 -66.5 12.5t-30.5 24.5l-5 12q57 0 121 53.5t102 120.5
t29 107q0 1 -0.5 3t-1.5 3q-60 0 -121 -32t-107 -78.5t-84 -99.5t-59 -94.5t-26 -63.5q62 39 127 39q27 0 47 -7t29.5 -16.5t15 -19t6.5 -16.5l1 -7q-65 8 -123 -14t-95 -60.5t-58.5 -82t-21.5 -80.5q0 -34 43 -41q18 -2 32 -2q68 0 122.5 52t62.5 110q0 2 0.5 6.5t0.5 6.5
q-45 7 -104 -43.5t-59 -82.5q-18 38 -7.5 70.5t39 57t58.5 39.5t51 17h5q37 2 65 -18.5t28 -50.5q0 -79 -85 -157.5t-171 -78.5q-79 0 -124.5 38t-49.5 94v9q0 36 32.5 95t83.5 105q-23 53 -8.5 114.5t62.5 124.5t106.5 114.5t123 84t113.5 32.5q18 0 28 -1z" />
    <glyph glyph-name="Ecircumflex" unicode="&#xca;" horiz-adv-x="614" 
d="M763 784q1 -16 -7.5 -29.5t-17.5 -19.5l-10 -6q-31 39 -57 66t-37 34l-10 7q-1 0 -1 -1q-34 -47 -65 -74t-44 -30l-14 -3q-23 3 -31 14.5t-5 21.5l4 11q45 30 83.5 64.5t54.5 54.5l16 19q8 -5 22 -13t16 -9q32 -28 58 -55t36 -40zM629 688q110 -9 110 -94
q0 -43 -39 -115.5t-96.5 -131t-101.5 -58.5q-41 0 -66.5 12.5t-30.5 24.5l-5 12q57 0 121 53.5t102 120.5t29 107q0 1 -0.5 3t-1.5 3q-60 0 -121 -32t-107 -78.5t-84 -99.5t-59 -94.5t-26 -63.5q62 39 127 39q27 0 47 -7t29.5 -16.5t15 -19t6.5 -16.5l1 -7q-65 8 -123 -14
t-95 -60.5t-58.5 -82t-21.5 -80.5q0 -34 43 -41q18 -2 32 -2q68 0 122.5 52t62.5 110q0 2 0.5 6.5t0.5 6.5q-45 7 -104 -43.5t-59 -82.5q-18 38 -7.5 70.5t39 57t58.5 39.5t51 17h5q37 2 65 -18.5t28 -50.5q0 -79 -85 -157.5t-171 -78.5q-79 0 -124.5 38t-49.5 94v9
q0 36 32.5 95t83.5 105q-23 53 -8.5 114.5t62.5 124.5t106.5 114.5t123 84t113.5 32.5q18 0 28 -1z" />
    <glyph glyph-name="Edieresis" unicode="&#xcb;" horiz-adv-x="594" 
d="M557 772q-17 0 -29 12.5t-12 29.5t12 29.5t29 12.5t29.5 -12.5t12.5 -29.5t-12.5 -29.5t-29.5 -12.5zM702 772q-18 0 -30 12.5t-12 29.5t12 29.5t30 12.5q17 0 29.5 -12.5t12.5 -29.5t-12.5 -29.5t-29.5 -12.5zM629 693q110 -11 110 -95q0 -43 -39 -115.5t-96.5 -130.5
t-101.5 -58q-26 0 -46 5t-30 12t-16.5 14t-7.5 12l-2 5q57 0 121 53.5t102 121t29 107.5q0 1 -1 3t-1 3q-60 0 -121 -32t-107 -78.5t-84 -99.5t-59 -95t-26 -64q63 40 127 40q27 0 47 -7t29.5 -16.5t15 -19t6.5 -16.5l1 -7q-65 8 -123 -14t-95 -61t-58.5 -82.5t-21.5 -80.5
q0 -33 43 -40q14 -3 32 -3q68 0 122.5 52t62.5 110q0 2 0.5 7t0.5 7q-45 7 -104 -44t-59 -83q-18 38 -7.5 71t39 57.5t59 39t50.5 16.5h5q38 2 65.5 -18t27.5 -51q0 -79 -85 -157.5t-171 -78.5q-78 0 -124 38.5t-50 93.5v10q0 36 32.5 94.5t83.5 105.5q-23 52 -8.5 113.5
t62.5 125t106.5 115t123 84t113.5 32.5q18 0 28 -1z" />
    <glyph glyph-name="Igrave" unicode="&#xcc;" horiz-adv-x="452" 
d="M464 750q-15 -25 -38 -25q-5 0 -31.5 24.5l-58 55t-39.5 37.5q1 4 3.5 10t18 16t40.5 10q49 -34 105 -128zM437 680q53 -11 86 -46t35 -91q1 -63 -138 -307l-61.5 -105l-66 -113t-35.5 -67q-7 -15 -8 -33.5t1 -29.5l2 -11q-94 0 -94 72q0 18 10 44.5t38.5 75l42.5 71
l57 90.5l78 125.5t54.5 104t30.5 93.5q5 62 -63 62q-41 0 -92.5 -30.5t-91 -84t-39.5 -108.5q0 -24 5.5 -42t12.5 -27.5t14.5 -16t12.5 -8.5l6 -1q-5 -15 -43 -7q-59 13 -87 61q-16 27 -16 61q0 28 24 73t62.5 90t96.5 77t118 32q28 0 48 -4z" />
    <glyph glyph-name="Iacute" unicode="&#xcd;" horiz-adv-x="452" 
d="M404 730q-10 0 -19 6t-13 12l-5 7q25 41 51 73t40 43l13 11q25 0 40.5 -9t18.5 -17l3 -9q-7 -6 -38.5 -37l-58.5 -55.5t-32 -24.5zM437 685q53 -11 86 -45.5t35 -90.5q1 -64 -138 -308l-62 -105l-65.5 -112.5t-35.5 -67.5q-7 -15 -8 -33t1 -29l2 -11q-94 0 -94 72
q0 18 10 44.5t38.5 75l42.5 71l57 90.5l77.5 124.5t55 104t30.5 93.5q5 63 -63 63q-41 0 -92.5 -31t-91 -84.5t-39.5 -108.5q0 -24 5.5 -42t12.5 -27.5t14.5 -15.5t12.5 -8l6 -1q-5 -15 -43 -7q-59 13 -87 61q-16 27 -16 61q0 28 24 72.5t62.5 89.5t96.5 77.5t118 32.5
q23 0 48 -5z" />
    <glyph glyph-name="Icircumflex" unicode="&#xce;" horiz-adv-x="452" 
d="M270 737q-22 3 -30 14.5t-4 22.5l3 10q45 30 83 64.5t54 53.5l16 20l39 -22q32 -28 57.5 -54.5t35.5 -39.5l9 -13q2 -16 -7 -29.5t-18 -19.5l-10 -6q-31 40 -57 66.5t-37 33.5l-10 7v-1q-35 -47 -66 -74t-44 -30zM437 680q53 -11 86 -46t35 -91q1 -63 -138 -307
l-61.5 -105l-66 -113t-35.5 -67q-7 -15 -8 -33.5t1 -29.5l2 -11q-94 0 -94 72q0 18 10 44.5t38.5 75l42.5 71l57 90.5l78 125.5t54.5 104t30.5 93.5q5 62 -63 62q-41 0 -92.5 -30.5t-91 -84t-39.5 -108.5q0 -24 5.5 -42t12.5 -27.5t14.5 -16t12.5 -8.5l6 -1q-5 -15 -43 -7
q-59 13 -87 61q-16 27 -16 61q0 28 24 73t62.5 90t96.5 77t118 32q28 0 48 -4z" />
    <glyph glyph-name="Idieresis" unicode="&#xcf;" horiz-adv-x="452" 
d="M348 782q-18 0 -30 12.5t-12 29.5t12 29.5t30 12.5q17 0 29.5 -12.5t12.5 -29.5t-12.5 -29.5t-29.5 -12.5zM492 782q-18 0 -30 12.5t-12 29.5t12 29.5t30 12.5q17 0 29.5 -12.5t12.5 -29.5t-12.5 -29.5t-29.5 -12.5zM437 685q53 -11 86 -45.5t35 -90.5q1 -64 -138 -308
l-62 -105l-65.5 -112.5t-35.5 -67.5q-7 -15 -8 -33t1 -29l2 -11q-94 0 -94 72q0 18 10 44.5t38.5 75l42.5 71l57 90.5l77.5 124.5t55 104t30.5 93.5q5 63 -63 63q-41 0 -92.5 -31t-91 -84.5t-39.5 -108.5q0 -24 5.5 -42t12.5 -27.5t14.5 -15.5t12.5 -8l6 -1q-5 -15 -43 -7
q-59 13 -87 61q-16 27 -16 61q0 28 24 72.5t62.5 89.5t96.5 77.5t118 32.5q23 0 48 -5z" />
    <glyph glyph-name="Ntilde" unicode="&#xd1;" horiz-adv-x="931" 
d="M799 780h-7t-11 7.5t-7 23.5q0 29 30.5 49.5t82.5 20.5q29 0 94.5 -25t92.5 -25q25 0 49 12.5t36 24.5l12 13q26 0 26 -25q0 -26 -33 -56t-90 -30q-45 0 -110.5 23t-91.5 23q-27 0 -44.5 -6.5t-23 -14t-5.5 -15.5zM1153 705q32 0 47.5 -8.5t15.5 -16.5v-8
q-51 0 -140 -112t-168 -253t-138 -267.5t-59 -157.5h-4q-34 1 -57 26t-32 67.5t-11.5 91t2.5 106.5t11.5 103.5t15.5 92.5q-148 -256 -277.5 -389t-205.5 -133q-27 0 -45.5 5.5t-25 13.5t-9 16.5t-1.5 13.5l1 6q55 -13 134.5 51.5t155.5 167t151 223.5t124 214t72 145
q0 1 0.5 1t0.5 1q28 11 49.5 2t33.5 -27l12 -17q-59 -158 -89 -281.5t-35 -182t-5 -141.5v4q6 36 57 138.5t120 216t153.5 201t145.5 87.5z" />
    <glyph glyph-name="Ograve" unicode="&#xd2;" horiz-adv-x="794" 
d="M782 770q-15 -25 -38 -25q-5 0 -31.5 24.5l-58 55t-39.5 37.5q1 4 3.5 10t18 16t40.5 10q49 -35 105 -128zM695 698q33 -4 62.5 -14t60 -30t48.5 -57t18 -87q0 -56 -34 -137.5t-92 -165t-126.5 -156.5t-146 -119t-141.5 -46q-120 0 -148 65q-11 25 -11 58q0 12 4 40
q-14 5 -30 14q-36 22 -53.5 61.5t-17.5 80.5q0 65 57.5 152t142 162t188 127.5t186.5 52.5q21 0 33 -1zM783 512q0 52 -5 67q-18 48 -91 48q-80 0 -194.5 -77.5t-201.5 -176t-109 -165.5q-5 -18 -5 -29q0 -49 29 -64q40 113 123.5 209t156.5 96q37 0 51 -16.5t10 -33.5
l-4 -16q-64 0 -125.5 -71.5t-103.5 -168.5q25 6 47 15t31 15l9 6q0 -31 -31 -61.5t-80 -42.5q-30 -100 3 -100h9q71 5 159.5 78t157.5 167.5t116.5 186t47.5 134.5z" />
    <glyph glyph-name="Oacute" unicode="&#xd3;" horiz-adv-x="794" 
d="M692 739q-10 0 -19 6.5t-13 12.5l-5 6q25 42 51 74t40 43l13 11q25 0 40.5 -9t18.5 -18l3 -9q-7 -6 -38.5 -37l-58.5 -55.5t-32 -24.5zM695 692q33 -3 62.5 -13.5t60 -30.5t48.5 -57t18 -87q0 -56 -34 -137.5t-92 -165t-126.5 -156.5t-146 -119t-141.5 -46
q-120 0 -148 66q-11 24 -11 58q0 12 4 40q-15 4 -30 14q-36 22 -53.5 61.5t-17.5 79.5q0 65 57.5 152.5t142 162.5t188 127.5t186.5 52.5q9 0 33 -2zM783 507q0 51 -5 67q-18 48 -91 48q-80 0 -194.5 -77.5t-201.5 -176t-109 -165.5q-5 -18 -5 -29q0 -50 29 -64
q40 113 123.5 209t156.5 96q37 0 51 -16.5t10 -32.5l-4 -17q-63 0 -125 -71.5t-104 -168.5q25 5 47 14t31 15l9 7q0 -32 -31 -62.5t-80 -41.5q-29 -100 3 -100h9q71 4 159.5 77.5t157.5 168t116.5 186t47.5 134.5z" />
    <glyph glyph-name="Ocircumflex" unicode="&#xd4;" horiz-adv-x="794" 
d="M591 757q-23 3 -31 14.5t-4 22.5l3 10q45 30 83.5 64.5t54.5 53.5l16 20q8 -5 22 -13t16 -9q32 -28 57.5 -55t35.5 -39l10 -13q1 -16 -7.5 -29.5t-18.5 -19.5l-9 -6q-31 39 -57 66t-36 34l-11 7q-1 0 -1 -1q-35 -47 -65.5 -74t-44.5 -30zM695 698q33 -4 62.5 -14t60 -30
t48.5 -57t18 -87q0 -56 -34 -137.5t-92 -165t-126.5 -156.5t-146 -119t-141.5 -46q-120 0 -148 65q-11 25 -11 58q0 12 4 40q-14 5 -30 14q-36 22 -53.5 61.5t-17.5 80.5q0 65 57.5 152t142 162t188 127.5t186.5 52.5q21 0 33 -1zM783 512q0 52 -5 67q-18 48 -91 48
q-80 0 -194.5 -77.5t-201.5 -176t-109 -165.5q-5 -18 -5 -29q0 -49 29 -64q40 113 123.5 209t156.5 96q37 0 51 -16.5t10 -33.5l-4 -16q-64 0 -125.5 -71.5t-103.5 -168.5q25 6 47 15t31 15l9 6q0 -31 -31 -61.5t-80 -42.5q-30 -100 3 -100h9q71 5 159.5 78t157.5 167.5
t116.5 186t47.5 134.5z" />
    <glyph glyph-name="Otilde" unicode="&#xd5;" horiz-adv-x="808" 
d="M499 765q0 1 -2.5 0t-6 1t-7 4.5t-6 9.5t-2.5 17q0 29 30 49.5t82 20.5q29 0 95 -25.5t93 -25.5q25 0 49 13t36 25l12 13q3 0 7.5 -0.5t11.5 -7t7 -18.5q0 -25 -33 -55t-90 -30q-46 0 -111.5 22.5t-90.5 22.5q-40 0 -57 -11t-17 -25zM695 688q33 -4 62.5 -14t60 -30
t48.5 -57t18 -87q0 -56 -34 -137.5t-92 -165t-126.5 -156.5t-146 -119t-141.5 -46q-120 0 -148 65q-11 25 -11 58q0 12 4 40q-14 5 -30 14q-36 22 -53.5 61.5t-17.5 80.5q0 65 57.5 152t142 162t188 127.5t186.5 52.5q21 0 33 -1zM783 503q0 51 -5 66q-18 49 -91 49
q-61 0 -144.5 -47t-156.5 -113t-130.5 -138t-73.5 -122q-5 -18 -5 -29q0 -49 29 -64q40 113 123.5 209.5t156.5 96.5q37 0 51 -16.5t10 -33.5l-4 -17q-64 0 -125.5 -71.5t-103.5 -168.5q25 6 47 15t31 15l9 6q0 -31 -31 -61.5t-80 -42.5q-30 -100 3 -100h9q71 5 159.5 78
t157.5 167.5t116.5 186.5t47.5 135z" />
    <glyph glyph-name="Odieresis" unicode="&#xd6;" horiz-adv-x="794" 
d="M584 786q-17 0 -29 12.5t-12 29.5q0 18 12 30.5t29 12.5t29.5 -12.5t12.5 -30.5q0 -17 -12.5 -29.5t-29.5 -12.5zM729 786q-18 0 -30 12.5t-12 29.5q0 18 12 30.5t30 12.5q17 0 29 -12.5t12 -30.5q0 -17 -12 -29.5t-29 -12.5zM695 688q33 -4 62.5 -14t60 -30t48.5 -57
t18 -87q0 -56 -34 -137.5t-92 -165t-126.5 -156.5t-146 -119t-141.5 -46q-120 0 -148 65q-11 25 -11 58q0 12 4 40q-14 5 -30 14q-36 22 -53.5 61.5t-17.5 80.5q0 65 57.5 152t142 162t188 127.5t186.5 52.5q21 0 33 -1zM783 503q0 51 -5 66q-18 49 -91 49q-61 0 -144.5 -47
t-156.5 -113t-130.5 -138t-73.5 -122q-5 -18 -5 -29q0 -49 29 -64q40 113 123.5 209.5t156.5 96.5q37 0 51 -16.5t10 -33.5l-4 -17q-64 0 -125.5 -71.5t-103.5 -168.5q25 6 47 15t31 15l9 6q0 -31 -31 -61.5t-80 -42.5q-30 -100 3 -100h9q71 5 159.5 78t157.5 167.5
t116.5 186.5t47.5 135z" />
    <glyph glyph-name="Oslash" unicode="&#xd8;" horiz-adv-x="794" 
d="M836 632q48 -48 48 -128q0 -56 -34 -137.5t-92 -165t-126.5 -156.5t-146 -119t-141.5 -46q-49 0 -77 9l-54 -71l-36 28l48 62q-19 16 -29 38q-11 24 -11 58q0 12 4 40q-15 4 -30 14q-36 22 -53.5 61.5t-17.5 79.5q0 65 57.5 152.5t142 162.5t188 127.5t186.5 52.5
q9 0 33 -2q61 -6 106 -32l40 52l35 -27zM177 174q0 -50 29 -64q40 113 123.5 209t156.5 96q37 0 51 -16.5t10 -32.5l-4 -17q-63 0 -125 -71.5t-104 -168.5q25 5 47 14t31 15l9 7v-8l356 466q-22 19 -70 19q-80 0 -194.5 -77.5t-201.5 -176t-109 -165.5q-5 -18 -5 -29z
M277 -24l66 86q-26 -16 -53 -21q-11 -37 -13 -65zM783 507q0 42 -2 54l-474 -620q71 7 159 81t155.5 167.5t114.5 184.5t47 133z" />
    <glyph glyph-name="Ugrave" unicode="&#xd9;" horiz-adv-x="725" 
d="M765 765q-15 -26 -37 -26q-5 0 -32 25l-58 55.5t-39 36.5q0 1 1 3.5t4.5 9t9.5 11t18.5 8.5t28.5 4q48 -34 104 -127zM922 681q33 0 48 -14.5t13 -28.5l-2 -15q-19 0 -64.5 -44.5t-100.5 -120t-106 -163t-85 -185.5t-34 -176q0 -9 4.5 -16.5t8.5 -10.5l4 -3
q-13 -19 -41 -21.5t-53 22t-25 72.5q0 40 15 100q-164 -199 -240 -199q-78 0 -113 59q-20 34 -20 86q0 48 49.5 138t141.5 225t106 157q26 44 31 59q2 8 2 9q-39 -13 -94 -51.5t-104.5 -90.5t-72.5 -108.5t3 -104.5q-3 -6 -14.5 -8t-26.5 2t-29.5 13.5t-24.5 30t-10 48.5
q0 38 34 95.5t86.5 112.5t126 94.5t142.5 39.5h1q44 0 63 -20t19 -61q0 -27 -109 -195q-147 -225 -188 -307q-78 -154 -1 -154q12 0 41 24q84 70 284 317q79 154 179 273.5t156 119.5z" />
    <glyph glyph-name="Uacute" unicode="&#xda;" horiz-adv-x="725" 
d="M715 739q-10 0 -19 6.5t-14 12.5l-4 6q25 42 51 74t39 43l14 11q25 0 40.5 -9t18.5 -18l3 -9q-7 -6 -38.5 -37l-58.5 -55.5t-32 -24.5zM922 681q33 0 48 -14.5t13 -28.5l-2 -15q-19 0 -64.5 -44.5t-100.5 -120t-106 -163t-85 -185.5t-34 -176q0 -9 4.5 -16.5t8.5 -10.5
l4 -3q-13 -19 -41 -21.5t-53 22t-25 72.5q0 40 15 100q-164 -199 -240 -199q-78 0 -113 59q-20 34 -20 86q0 48 49.5 138t141.5 225t106 157q26 44 31 59q2 8 2 9q-39 -13 -94 -51.5t-104.5 -90.5t-72.5 -108.5t3 -104.5q-3 -6 -14.5 -8t-26.5 2t-29.5 13.5t-24.5 30
t-10 48.5q0 38 34 95.5t86.5 112.5t126 94.5t142.5 39.5h1q44 0 63 -20t19 -61q0 -27 -109 -195q-147 -225 -188 -307q-78 -154 -1 -154q12 0 41 24q84 70 284 317q79 154 179 273.5t156 119.5z" />
    <glyph glyph-name="Ucircumflex" unicode="&#xdb;" horiz-adv-x="725" 
d="M552 752q-23 2 -31 13.5t-5 22.5l4 10q45 31 83.5 65.5t54.5 53.5l16 19q4 -2 38 -22q32 -28 58 -54.5t36 -39.5l9 -12q1 -16 -7.5 -30t-17.5 -20l-10 -6q-31 40 -57 67t-37 34l-10 7l-1 -1q-35 -47 -65.5 -74t-43.5 -30zM922 681q33 0 48 -14.5t13 -28.5l-2 -15
q-19 0 -64.5 -44.5t-100.5 -120t-106 -163t-85 -185.5t-34 -176q0 -9 4.5 -16.5t8.5 -10.5l4 -3q-13 -19 -41 -21.5t-53 22t-25 72.5q0 40 15 100q-164 -199 -240 -199q-78 0 -113 59q-20 34 -20 86q0 48 49.5 138t141.5 225t106 157q26 44 31 59q2 8 2 9q-39 -13 -94 -51.5
t-104.5 -90.5t-72.5 -108.5t3 -104.5q-3 -6 -14.5 -8t-26.5 2t-29.5 13.5t-24.5 30t-10 48.5q0 38 34 95.5t86.5 112.5t126 94.5t142.5 39.5h1q44 0 63 -20t19 -61q0 -27 -109 -195q-147 -225 -188 -307q-78 -154 -1 -154q12 0 41 24q84 70 284 317q79 154 179 273.5
t156 119.5z" />
    <glyph glyph-name="Udieresis" unicode="&#xdc;" horiz-adv-x="725" 
d="M622 786q-17 0 -29 12.5t-12 29.5q0 18 12 30.5t29 12.5t29.5 -12.5t12.5 -30.5q0 -17 -12.5 -29.5t-29.5 -12.5zM767 786q-18 0 -30 12.5t-12 29.5q0 18 12 30.5t30 12.5q17 0 29 -12.5t12 -30.5q0 -17 -12 -29.5t-29 -12.5zM922 677q33 0 48 -14.5t13 -28.5l-2 -15
q-25 0 -88 -70.5t-130.5 -170.5t-119.5 -226.5t-52 -221.5q0 -10 4.5 -17.5t8.5 -10.5l4 -3q-13 -19 -41 -21.5t-53 22t-25 73.5q0 39 15 99q-165 -198 -240 -198q-78 0 -113 59q-20 34 -20 85q0 48 50 138.5t141.5 224.5t105.5 157q27 48 31 60q2 6 2 9q-39 -13 -94 -51.5
t-104.5 -91t-72.5 -109t3 -104.5q-3 -6 -14.5 -8t-26.5 2t-29.5 13.5t-24.5 30t-10 48.5q0 38 34 95.5t86.5 112.5t126 94.5t142.5 39.5h1q44 0 63 -20t19 -61q0 -27 -109 -193q-147 -226 -188 -308q-78 -154 -1 -154q12 0 41 24q84 69 284 316q79 155 179 274.5t156 119.5z
" />
    <glyph glyph-name="Yacute" unicode="&#xdd;" horiz-adv-x="683" 
d="M648 745q-10 0 -19.5 6.5t-14.5 12.5l-4 6q25 42 51 74t40 43l14 11q25 0 40.5 -9t18.5 -18l3 -9q-9 -7 -40 -37l-57.5 -55t-31.5 -25zM970 717q19 0 30.5 -9.5t13.5 -19.5l2 -10q-82 -38 -151 -108t-115.5 -150.5t-88 -169.5l-77.5 -169.5t-73.5 -146t-86.5 -104.5
t-108 -39q-35 0 -59 19.5t-32 50.5q-3 12 -3 25q0 27 18.5 48t56.5 21q-23 -19 -28.5 -40.5t4 -34.5t27.5 -13q9 0 21 5q52 25 152 220q-76 -81 -115 -81q-63 0 -97 44q-28 37 -28 103q0 40 34 114t75 141.5t75 131.5t34 85q0 13 -13 13q-29 0 -80 -28t-98 -71.5
t-70.5 -95.5t3.5 -100q-3 -6 -14.5 -8t-26.5 2t-29.5 13.5t-24.5 30t-10 48.5q0 37 30 85.5t78 92t117 73.5t138 31h4q49 0 78 -40t12 -99q-5 -16 -29.5 -59l-54 -91.5t-61.5 -107.5t-52 -107t-25 -89t18 -55q10 0 28 15q69 58 254 301q86 154 170.5 243.5t176.5 89.5z" />
    <glyph glyph-name="agrave" unicode="&#xe0;" horiz-adv-x="451" 
d="M219 417q-15 -25 -38 -25q-5 0 -31.5 25l-57.5 55t-40 37q1 4 3.5 10t18 16t40.5 10q49 -34 105 -128zM366 247l33 -17q-46 -92 -111 -161t-114 -69q-66 0 -89 62q-8 22 -8 47v1l-3 -3l3 12l-3 -12q-82 -107 -150 -107q-38 0 -66.5 33.5t-33.5 60.5q-2 12 -2 19
q0 50 43 109.5t98.5 98.5t93.5 39q66 0 113 -55l1 -1q-1 -1 -3.5 -4.5t-4.5 -5.5q2 2 4.5 5.5t3.5 4.5q22 24 43 40t29 16q32 0 52 -15t24 -30l4 -15q-69 -16 -109 -72t-36 -102q2 -14 4 -19q4 -10 13 -14q5 -3 12 -3q5 0 13 3q24 9 60.5 47.5t61.5 72.5zM150 275v1l1 2
l-1 -1v-2zM-70 71q68 18 208 193q1 2 3 4v1q-19 22 -51 22q-22 0 -45 -10q-65 -28 -112 -111q-35 -65 -26 -92q4 -8 12 -8q1 0 5 0.5t6 0.5zM80 132q0 -3 -2 -9q2 6 2 9zM108 205q-2 -2 -2 -5q0 3 2 5zM98 183l-3 -6zM84 144q-2 -4 -2 -8q0 4 2 8z" />
    <glyph glyph-name="aacute" unicode="&#xe1;" horiz-adv-x="473" 
d="M241 396q-10 0 -19.5 6.5t-13.5 13.5l-5 6q25 41 51 73t40 43l14 11q25 0 40.5 -9t18.5 -18l3 -9q-9 -7 -40 -37l-57.5 -55t-31.5 -25zM410 248l33 -17q-41 -87 -111 -161q-65 -69 -114 -69q-30 0 -54 16.5t-35 45.5q-8 22 -8 47v1q0 -1 -2 -3l3 12l-3 -12
q-82 -107 -150 -107q-38 0 -66.5 33.5t-33.5 60.5q-2 6 -2 19q0 50 42.5 109.5t98 98t93.5 38.5q67 0 114 -55l-7 -10l7 10h1q50 55 72 55q32 0 51.5 -15t23.5 -29l4 -15q-69 -16 -108.5 -71.5t-35.5 -102.5q0 -12 4 -19q4 -9 12 -14q6 -3 12 -3q5 0 13 3q24 9 60.5 47.5
t61.5 72.5zM204 290q0 -1 -1 -2.5t-2 -2.5q1 1 2 2.5t1 2.5zM189 268zM-26 72q67 16 208 193q3 3 3 4l1 1q-19 22 -52 22q-20 0 -45 -10q-65 -28 -112 -111q-35 -65 -26 -92q4 -8 12 -8t11 1zM125 133q-2 -6 -2 -9q0 3 2 9zM172 242l-1 -1q-1 -1 -1 -2q0 1 1 1zM166 232
q0 -1 -2 -3q2 2 2 3zM160 222q0 -2 -2 -4q2 2 2 4zM152 206q0 -1 -2 -5q2 4 2 5zM147 195q-1 -1 -1 -2q-1 -2 -1 -3q0 1 0.5 2.5t1.5 2.5zM142 184q0 -1 -1 -3t-1 -3q0 1 1 3t1 3zM128 145q-1 -1 -1.5 -4t-0.5 -4q0 1 0.5 4t1.5 4z" />
    <glyph glyph-name="acircumflex" unicode="&#xe2;" horiz-adv-x="473" 
d="M90 411q-22 2 -30 13.5t-4 21.5l3 11q45 31 83.5 65.5t54.5 53.5l16 19q4 -2 38 -22q32 -28 57.5 -54.5t35.5 -38.5l9 -13q2 -16 -6.5 -30t-18.5 -20l-9 -6q-31 40 -57.5 66.5t-37.5 33.5l-10 7q-35 -47 -66 -74t-44 -30zM410 248l33 -17q-41 -87 -111 -161
q-65 -69 -114 -69q-30 0 -54 16.5t-35 45.5q-8 22 -8 47v1q0 -1 -2 -3l3 12l-3 -12q-82 -107 -150 -107q-38 0 -66.5 33.5t-33.5 60.5q-2 6 -2 19q0 50 42.5 109.5t98 98t93.5 38.5q67 0 114 -55l-7 -10l7 10h1q50 55 72 55q32 0 51.5 -15t23.5 -29l4 -15
q-69 -16 -108.5 -71.5t-35.5 -102.5q0 -12 4 -19q4 -9 12 -14q6 -3 12 -3q5 0 13 3q24 9 60.5 47.5t61.5 72.5zM194 276l1 1q1 1 1 2q0 -1 -1 -1zM-26 72q67 16 208 193q3 3 3 4l1 1q-19 22 -52 22q-20 0 -45 -10q-65 -28 -112 -111q-35 -65 -26 -92q4 -8 12 -8t11 1z
M125 133q-2 -6 -2 -9q0 3 2 9zM172 242l-1 -1q-1 -1 -1 -2q0 1 1 1zM142 184q0 -2 -2 -6q2 4 2 6zM138 173q-2 -6 -4 -9q2 3 4 9z" />
    <glyph glyph-name="atilde" unicode="&#xe3;" horiz-adv-x="472" 
d="M38 427q-3 0 -7 0.5t-11 8t-7 22.5q0 29 30 49.5t83 20.5q29 0 94.5 -25t92.5 -25q25 0 49 12.5t36 25.5l12 12q26 0 26 -25q0 -26 -33 -56t-90 -30q-45 0 -111 23t-91 23q-27 0 -44.5 -6.5t-23 -14t-5.5 -15.5zM408 248l33 -17q-41 -87 -111 -161q-65 -69 -114 -69
q-30 0 -54 16.5t-35 45.5q-8 22 -8 47v1q0 -1 -2 -3l3 12l-3 -12q-82 -107 -150 -107q-38 0 -66.5 33.5t-33.5 60.5q-2 6 -2 19q0 50 42.5 109.5t98 98t93.5 38.5q67 0 114 -55l-7 -10l7 10h1q50 55 72 55q32 0 51.5 -15t23.5 -29l4 -15q-69 -16 -108.5 -71.5t-35.5 -102.5
q0 -12 4 -19q4 -9 12 -14q6 -3 12 -3q5 0 13 3q24 9 60.5 47.5t61.5 72.5zM202 290q0 -1 -1 -2.5t-2 -2.5q1 1 2 2.5t1 2.5zM187 268zM-28 72q67 16 208 193q3 3 3 4l1 1q-19 22 -52 22q-20 0 -45 -10q-65 -28 -112 -111q-35 -65 -26 -92q4 -8 12 -8t11 1zM123 133
q-2 -6 -2 -9q0 3 2 9zM150 206q0 -1 -2 -5q2 4 2 5zM145 195q-1 -1 -1 -2q-1 -2 -1 -3q0 1 0.5 2.5t1.5 2.5zM140 184q0 -2 -2 -6q2 4 2 6zM126 145q0 -2 -2 -8q2 6 2 8z" />
    <glyph glyph-name="adieresis" unicode="&#xe4;" horiz-adv-x="458" 
d="M120 426q-17 0 -29 12.5t-12 29.5t12 30t29 13t29.5 -13t12.5 -30t-12.5 -29.5t-29.5 -12.5zM265 426q-18 0 -30 12.5t-12 29.5q0 18 12 30.5t30 12.5q16 0 28.5 -13t12.5 -30t-12 -29.5t-29 -12.5zM380 243l33 -17q-43 -87 -111 -160q-64 -69 -114 -69q-30 0 -54 16.5
t-35 45.5q-8 22 -8 47q0 -1 -2 -3q1 5 3 13q-2 -8 -3 -13q-83 -106 -150 -106q-38 0 -66.5 33t-33.5 60q-2 7 -2 19q0 76 86.5 161.5t147.5 85.5q67 0 114 -55v-1q0 -1 -3 -4.5t-4 -5.5q1 2 4 5.5t3 4.5h1q51 56 72 56q32 0 51.5 -15t23.5 -29l4 -15q-69 -17 -108.5 -72.5
t-35.5 -102.5q0 -11 4 -19q5 -10 12 -14q6 -3 12 -3q5 0 13 3q24 9 60.5 47.5t61.5 72.5zM164 272l2 2zM-56 68q67 16 208 193q3 1 3 4h1q-19 22 -52 22q-24 0 -45 -10q-64 -27 -111 -110q-36 -64 -27 -92q3 -9 12 -9q5 0 11 2zM95 128q-2 -6 -2 -8q0 2 2 8zM130 217v-1
l-1 -2l1 1v2zM117 191q-1 -1 -1 -3t-1 -3q1 1 1 3t1 3zM112 180q0 -3 -2 -7q2 4 2 7zM108 168q-2 -6 -4 -9q2 3 4 9zM98 141q0 -4 -2 -8q2 4 2 8z" />
    <glyph glyph-name="aring" unicode="&#xe5;" horiz-adv-x="472" 
d="M166 383q-57 0 -84 49q-8 14 -8 37q0 65 41.5 105t86.5 40h15q30 0 56.5 -22.5t26.5 -56.5q0 -61 -42.5 -106.5t-91.5 -45.5zM212 575q-31 -7 -53.5 -41.5t-22.5 -62.5q0 -36 21 -37h1q20 0 50.5 33.5t30.5 75.5q0 13 -3 20q-3 8 -9 11t-11 2zM408 243l33 -17
q-43 -87 -111 -160q-64 -69 -114 -69q-30 0 -54 16.5t-35 45.5q-8 22 -8 47q0 -1 -2 -3q1 5 3 13q-2 -8 -3 -13q-83 -106 -150 -106q-38 0 -66.5 33t-33.5 60q-2 7 -2 19q0 76 86.5 161.5t147.5 85.5q67 0 114 -55v-1q0 -1 -3 -4.5t-4 -5.5q1 2 4 5.5t3 4.5h1q51 56 72 56
q32 0 51.5 -15t23.5 -29l4 -15q-69 -17 -108.5 -72.5t-35.5 -102.5q0 -11 4 -19q5 -10 12 -14q6 -3 12 -3q5 0 13 3q24 9 60.5 47.5t61.5 72.5zM202 285q0 -1 -1 -2l-2 -2l2 2t1 2zM187 264zM-28 68q67 16 208 193q3 1 3 4h1q-19 22 -52 22q-24 0 -45 -10q-64 -27 -111 -110
q-36 -64 -27 -92q3 -9 12 -9q5 0 11 2zM164 228q0 -2 -2 -4q2 2 2 4zM150 202q0 -3 -2 -5q2 2 2 5zM145 191q-1 -1 -1 -3t-1 -3q1 1 1 3t1 3zM140 180q0 -3 -2 -7q2 4 2 7zM131 155q-2 -6 -3 -10q1 4 3 10zM126 141q0 -4 -2 -8q2 4 2 8z" />
    <glyph glyph-name="ae" unicode="&#xe6;" horiz-adv-x="537" 
d="M300 111q-60 0 -101 39q-19 -28 -19 -48q0 -14 1 -21.5t10 -17t27 -11.5q4 -1 12 -1q22 0 40.5 7.5t25.5 14.5l8 7l6 1q5 -3 5 -19q0 -22 -25 -41.5t-69 -19.5q-78 0 -99 62v1q-2 6 -3 10q-89 -73 -137 -73q-18 0 -44 14.5t-35 40.5q-5 13 -5 25q0 55 51 113t106 58
t102 -40q2 -1 2 -2q4 5 5 11l1 1q10 20 10 37q0 18 -3 26q-7 27 -48 27q-22 0 -40 -7.5t-26 -14.5l-7 -8l-5 -1q-6 3 -6 19q0 22 25 41.5t69 19.5h12q69 -4 88 -64q71 64 133 64h5q24 0 54.5 -21t30.5 -59q0 -54 -51 -112t-106 -58zM382 305q0 9 -2 23q2 -20 2 -23zM382 303
q-36 -17 -83 -53.5t-79 -73.5q56 -37 137 48q27 30 25 79zM-24 60q94 46 147 101q1 1 4 5l8 10.5l9 11.5l-6 -7q-62 40 -141 -44q-44 -46 -23 -74z" />
    <glyph glyph-name="ccedilla" unicode="&#xe7;" horiz-adv-x="358" 
d="M79 176q104 56 104 120q51 4 74 -30q0 -46 -63.5 -86t-114.5 -14q-3 0 -4 2t0.5 4.5t3.5 3.5zM324 243l33 -17q-82 -161 -200 -209q-21 -8 -50 -14q-8 -2 -28 -4q6 -8 16 -16q44 -32 44 -82q0 -27 -18 -46t-48 -21h-6q-30 0 -45.5 18.5t-15.5 39.5q0 16 9.5 25.5
t18.5 9.5l8 -3q4 -3 2 -9q-6 -7 -0.5 -17.5t21.5 -10.5q21 0 21 25v2q-1 13 -25 40t-25 45q-47 3 -81.5 25t-46.5 58q-5 20 -5 37q0 43 19 82t47 66t61.5 47.5t62.5 30t49 9.5q44 0 79.5 -26t35.5 -61v-1q-23 34 -74 30q-68 0 -121.5 -46t-65.5 -97q-1 -1 -1 -4
q-2 -10 -2 -15q0 -32 20.5 -47.5t71.5 -15.5q9 0 14 1q36 3 72 22t62.5 43.5t47.5 48.5t32 40z" />
    <glyph glyph-name="egrave" unicode="&#xe8;" horiz-adv-x="354" 
d="M211 447q-15 -25 -38 -25q-5 0 -31.5 25l-57.5 55t-40 37q0 1 1 3.5t4.5 9t9.5 11t18.5 8.5t28.5 4q49 -34 105 -128zM315 248l32 -17q-95 -176 -200 -215q-33 -13 -72 -13q-132 0 -162 83q-6 20 -6 41q0 41 18 79t45.5 65.5t59 48t60 30.5t47.5 10q41 0 75 -27.5
t36 -59.5v-4q0 -45 -48.5 -90t-112.5 -45q-67 0 -78 63q-1 0 -1 -0.5t-1 -0.5q-21 -21 -21 -54q0 -12 3 -23q15 -42 87 -42q8 0 24 2q34 5 69 24.5t60 43t45 47t30 38.5zM176 297q-77 0 -140 -67l-3 -3q5 -19 25 -23.5t40 0.5t38 15q23 12 33 31.5t9 33.5z" />
    <glyph glyph-name="eacute" unicode="&#xe9;" horiz-adv-x="354" 
d="M182 422q-10 0 -19 6t-13 12l-5 7q25 41 51 73t40 43l14 11q25 0 40.5 -9t18.5 -17l3 -9q-8 -7 -39.5 -37.5l-58.5 -55t-32 -24.5zM315 248l32 -17q-95 -176 -200 -215q-33 -13 -72 -13q-132 0 -162 83q-6 20 -6 41q0 41 18 79t45.5 65.5t59 48t60 30.5t47.5 10
q41 0 75 -27.5t36 -59.5v-4q0 -45 -48.5 -90t-112.5 -45q-67 0 -78 63q-1 0 -1 -0.5t-1 -0.5q-21 -21 -21 -54q0 -12 3 -23q15 -42 87 -42q8 0 24 2q34 5 69 24.5t60 43t45 47t30 38.5zM176 297q-77 0 -140 -67l-3 -3q5 -19 25 -23.5t40 0.5t38 15q23 12 33 31.5t9 33.5z
" />
    <glyph glyph-name="ecircumflex" unicode="&#xea;" horiz-adv-x="354" 
d="M52 418q-23 2 -30.5 13.5t-3.5 22.5l3 10q45 31 83 65.5t54 54.5l16 19q30 -17 38 -23q32 -28 58 -54.5t36 -39.5l9 -12q2 -16 -7 -30t-18 -20l-10 -6q-31 40 -57 67t-37 34l-10 7v-1q-35 -47 -66 -74t-44 -30zM315 243l32 -17q-94 -177 -200 -216q-37 -13 -72 -13
q-131 0 -162 84q-6 18 -6 40q0 51 27 97t65.5 74.5t76 45t61.5 16.5q41 0 75 -27.5t36 -59.5v-4q0 -45 -48.5 -90t-112.5 -45q-67 0 -78 64q-1 -1 -2 -1q-21 -21 -21 -55q0 -12 3 -22q15 -42 87 -42q16 0 24 1q34 5 69 24.5t60 43.5t45 47.5t30 39.5zM176 291
q-78 0 -140 -67q-2 -2 -3 -2q5 -19 25 -23.5t40 0.5t38 15q23 12 33 31.5t9 32.5z" />
    <glyph glyph-name="edieresis" unicode="&#xeb;" horiz-adv-x="354" 
d="M84 426q-18 0 -30 12t-12 29q0 18 12 30.5t30 12.5q17 0 29.5 -12.5t12.5 -30.5q0 -17 -12.5 -29t-29.5 -12zM228 426q-17 0 -29.5 12t-12.5 29q0 18 12.5 30.5t29.5 12.5t29.5 -12.5t12.5 -30.5q0 -17 -12.5 -29t-29.5 -12zM315 248l32 -17q-94 -177 -200 -216
q-37 -13 -72 -13q-131 0 -162 84q-6 18 -6 40q0 51 27 97t65.5 74.5t76 45t61.5 16.5q41 0 75 -27.5t36 -59.5v-4q0 -45 -48.5 -90t-112.5 -45q-67 0 -78 64q-1 0 -1 -0.5t-1 -0.5q-21 -21 -21 -55q0 -11 3 -22q15 -42 87 -42q16 0 24 1q34 5 69 24.5t60 43.5t45 47.5
t30 38.5zM176 296q-78 0 -140 -67q-2 -2 -3 -2q5 -19 25 -23.5t40 0.5t38 15q23 12 33 31.5t9 32.5z" />
    <glyph glyph-name="igrave" unicode="&#xec;" horiz-adv-x="251" 
d="M234 535q-15 -26 -37 -26q-5 0 -32 25l-58 55.5t-39 36.5q0 1 1 3.5t4.5 9t9.5 11t18.5 8.5t28.5 4q48 -34 104 -127zM176 494q26 0 44 -18t18 -43t-18 -43t-44 -18t-43.5 18t-17.5 43t17.5 43t43.5 18zM210 250l32 -17q-46 -94 -119 -167q-67 -65 -118 -65
q-35 0 -59 20.5t-33 54.5q-4 16 -4 38q0 43 23 90.5t52.5 81t56.5 56t37 22.5q32 0 47 -15t13 -29l-1 -15q-42 -24 -74.5 -69.5t-42.5 -87.5q-8 -33 2 -52q1 -5 7 -9q8 0 12 1q35 6 77 46.5t67 77.5z" />
    <glyph glyph-name="iacute" unicode="&#xed;" horiz-adv-x="251" 
d="M324 662q25 0 40.5 -9t18.5 -18l3 -9q-8 -7 -39.5 -37.5l-58 -55t-31.5 -24.5q-10 0 -19.5 6.5t-13.5 12.5l-5 6q25 42 51 74t40 43zM176 372q-26 0 -43.5 18t-17.5 43t17.5 43t43.5 18t44 -18t18 -43t-18 -43t-44 -18zM41 88q35 6 77 46.5t67 77.5l25 38l32 -17
q-46 -94 -119 -167q-67 -65 -118 -65q-35 0 -59 20.5t-33 54.5q-4 16 -4 38q0 43 23 90.5t52.5 81t56.5 56t37 22.5q32 0 47 -15t13 -29l-1 -15q-42 -24 -74.5 -69.5t-42.5 -87.5q-8 -33 2 -52q1 -5 7 -9q8 0 12 1z" />
    <glyph glyph-name="icircumflex" unicode="&#xee;" horiz-adv-x="252" 
d="M387 578q2 -16 -7 -30t-18 -20l-10 -6q-31 40 -57 67t-37 34l-10 7v-1q-35 -47 -66 -74t-44 -30l-14 -3q-22 2 -30 13.5t-4 22.5l3 10q45 31 83 65.5t54 53.5l16 19q9 -4 39 -22q32 -28 57.5 -54.5t35.5 -39.5zM176 372q-26 0 -43.5 18t-17.5 43t17.5 43t43.5 18t44 -18
t18 -43t-18 -43t-44 -18zM41 88q35 6 77 46.5t67 77.5l25 38l32 -17q-46 -94 -119 -167q-67 -65 -118 -65q-35 0 -59 20.5t-33 54.5q-4 16 -4 38q0 43 23 90.5t52.5 81t56.5 56t37 22.5q32 0 47 -15t13 -29l-1 -15q-42 -24 -74.5 -69.5t-42.5 -87.5q-8 -33 2 -52q1 -5 7 -9
q8 0 12 1z" />
    <glyph glyph-name="idieresis" unicode="&#xef;" horiz-adv-x="254" 
d="M152 532q-17 0 -29 12t-12 29q0 18 12 30.5t29 12.5t29.5 -12.5t12.5 -30.5q0 -17 -12.5 -29t-29.5 -12zM297 616q17 0 29.5 -12.5t12.5 -30.5q0 -16 -12.5 -28.5t-29.5 -12.5q-18 0 -30 12t-12 29q0 18 12 30.5t30 12.5zM113 433q0 25 17.5 43t43.5 18t44 -18t18 -43
t-18 -43t-44 -18t-43.5 18t-17.5 43zM39 88q35 6 77 46.5t67 77.5l25 38l32 -17q-46 -94 -119 -167q-67 -65 -118 -65q-35 0 -59 20.5t-33 54.5q-4 16 -4 38q0 43 23 90.5t52.5 81t56.5 56t37 22.5q32 0 47 -15t13 -29l-1 -15q-42 -24 -74.5 -69.5t-42.5 -87.5q-8 -33 2 -52
q1 -5 7 -9q8 0 12 1z" />
    <glyph glyph-name="ntilde" unicode="&#xf1;" horiz-adv-x="479" 
d="M82 422q-2 0 -5.5 0.5t-9 8t-5.5 22.5q0 29 25 49.5t68 20.5q24 0 78.5 -25t76.5 -25q20 0 40 12.5t30 24.5l10 13q2 0 6 -0.5t10 -7t6 -17.5q0 -25 -27.5 -55.5t-74.5 -30.5q-38 0 -92 23t-75 23q-32 0 -46.5 -11.5t-14.5 -24.5zM439 244l32 -16q-68 -122 -129 -179
q-53 -50 -102 -50q-20 0 -45.5 17.5t-33.5 50.5q-3 12 -3 25q0 28 27.5 76.5t54.5 83.5l28 35l-1 -1h-1q-166 -108 -237 -247q-19 -35 -26 -39q-2 -1 -5 -1h-3q-35 1 -75 61q-11 20 -11 54q0 43 23 90.5t52.5 81t56.5 56t38 22.5q20 0 33 -6t18 -14.5t7 -17t1 -14.5l-1 -6
q-37 -22 -70.5 -69.5t-49.5 -93.5q62 86 147.5 150t129.5 65q28 0 48.5 -23t20.5 -39q0 -18 -39 -82.5t-46 -83.5q-13 -37 14 -37h5q22 4 57.5 42t59.5 73zM299 333q-6 -16 -23 -37q17 21 23 37q2 4 2 7q0 -3 -2 -7z" />
    <glyph glyph-name="ograve" unicode="&#xf2;" horiz-adv-x="380" 
d="M216 437q-14 -25 -37 -25q-5 0 -32 25l-58 55.5t-39 36.5q0 1 1 3.5t4.5 9t9.5 11t18.5 8.5t28.5 4q49 -34 104 -128zM313 245l32 -16q-2 -5 -6 -13.5t-18.5 -32.5t-30.5 -45.5t-42 -47t-53 -43.5t-63.5 -28.5t-74.5 -7.5l-1 -1q-2 0 -2 -1q-26 -10 -53 -10
q-52 0 -85 18.5t-45 44.5q1 -1 3 -2l2 -2l-2 2q-2 1 -3 2q-9 19 -9.5 42t8 51.5t32 63.5t59.5 72q67 67 144 67q10 0 14 -1q42 0 77 -28.5t35 -70.5q0 -83 -72 -169q84 38 154 156zM-122 57l1 -1h2h-1zM-117 55q1 -1 2 -1t2 -1q-1 1 -2 1t-2 1zM-77 45h5h-5zM-65 45q3 0 4 1
q-1 -1 -4 -1zM-59 46h4h-4zM-54 46q2 1 6 1q-4 0 -6 -1zM-48 47l12 3zM-36 50l18 6zM-9 61q6 2 8 4q-2 -2 -8 -4zM32 86q44 28 79.5 84t37.5 94q2 35 -27 35q-52 0 -109 -73t-57 -116q0 -32 12 -40l3 3q13 17 34 18q8 0 26 -5q-4 -4 -7 -5q3 1 7 5h1zM8 70q1 0 3.5 1.5
t3.5 2.5q-1 -1 -3.5 -2.5t-3.5 -1.5zM16 75q6 4 7 5q-1 -1 -7 -5z" />
    <glyph glyph-name="oacute" unicode="&#xf3;" horiz-adv-x="385" 
d="M118 400q-10 0 -19.5 6t-13.5 12l-4 7q24 42 50 74t40 43l14 11q25 0 40.5 -9t18.5 -18l3 -9q-8 -6 -39 -36.5l-58 -55.5t-32 -25zM313 245l32 -16q-2 -5 -6 -13.5t-18.5 -32.5t-30.5 -45.5t-42 -47t-53 -43.5t-63.5 -28.5t-74.5 -7.5l-1 -1q-2 0 -2 -1q-26 -10 -53 -10
q-52 0 -85 18.5t-45 44.5q1 -1 3 -2l2 -2l-2 2q-2 1 -3 2q-9 19 -9.5 42t8 51.5t32 63.5t59.5 72q67 67 144 67q10 0 14 -1q42 0 77.5 -28.5t35.5 -70.5q0 -82 -73 -169q84 38 154 156zM-122 57l1 -1h2h-1zM-117 55q1 -1 2 -1t2 -1q-1 1 -2 1t-2 1zM-77 45h5h-5zM-106 50
q2 0 3 -1q-1 1 -3 1zM-83 46q1 -1 5 -1q-4 0 -5 1zM-65 45q3 0 4 1q-1 -1 -4 -1zM-59 46h4h-4zM-54 46q2 1 6 1q-4 0 -6 -1zM-48 47l12 3zM-36 50l18 6zM-18 57l9 3zM-9 61q6 2 8 4q-2 -2 -8 -4zM32 86q44 28 79.5 84t37.5 94q2 35 -27 35q-52 0 -109 -73t-57 -116
q0 -32 12 -40l3 3q13 17 34 18q8 0 26 -5q-4 -4 -7 -5q3 1 7 5h1zM8 70q1 0 3.5 1.5t3.5 2.5q-1 -1 -3.5 -2.5t-3.5 -1.5zM16 75q6 4 7 5q-1 -1 -7 -5z" />
    <glyph glyph-name="ocircumflex" unicode="&#xf4;" horiz-adv-x="385" 
d="M11 402q-22 2 -30 13.5t-5 22.5l4 10q45 31 83.5 65.5t54.5 53.5l16 19q4 -2 38 -22q32 -28 57.5 -54.5t34.5 -39.5l10 -12q2 -16 -6.5 -30t-17.5 -20l-10 -6q-31 40 -57.5 66.5t-36.5 33.5l-11 7q-35 -47 -66 -74t-45 -30zM313 245l32 -16q-2 -5 -6 -13.5t-18.5 -32.5
t-30.5 -45.5t-42 -47t-53 -43.5t-63.5 -28.5t-74.5 -7.5l-1 -1q-2 0 -2 -1q-26 -10 -53 -10q-52 0 -85 18.5t-45 44.5q1 -1 3 -2l2 -2l-2 2q-2 1 -3 2q-9 19 -9.5 42t8 51.5t32 63.5t59.5 72q67 67 144 67q10 0 14 -1q42 0 77.5 -28.5t35.5 -70.5q0 -82 -73 -169
q84 38 154 156zM-122 57l1 -1h2h-1zM-77 45h5h-5zM-106 50q2 0 3 -1q-1 1 -3 1zM-101 49q2 -1 4 -1q-2 0 -4 1zM-95 47q3 0 5 -1q-2 1 -5 1zM-65 45q3 0 4 1q-1 -1 -4 -1zM-59 46h4h-4zM-54 46q2 1 6 1q-4 0 -6 -1zM-48 47l12 3zM-36 50l18 6zM-9 61q6 2 8 4q-2 -2 -8 -4z
M32 86q44 28 79.5 84t37.5 94q2 35 -27 35q-52 0 -109 -73t-57 -116q0 -32 12 -40l3 3q13 17 34 18q8 0 26 -5q-4 -4 -7 -5q3 1 7 5h1zM8 70q1 0 3.5 1.5t3.5 2.5q-1 -1 -3.5 -2.5t-3.5 -1.5zM16 75q6 4 7 5q-1 -1 -7 -5z" />
    <glyph glyph-name="otilde" unicode="&#xf5;" horiz-adv-x="386" 
d="M39 422q-2 0 -5.5 0.5t-9.5 8t-6 22.5q0 29 25 49.5t68 20.5q24 0 78.5 -25t76.5 -25q21 0 41 12.5t29 24.5l10 13q2 0 6 -0.5t10 -7t6 -17.5q0 -25 -27.5 -55.5t-74.5 -30.5q-38 0 -92 23t-75 23q-32 0 -46 -11.5t-14 -24.5zM157 89q84 38 154 156l32 -16
q-2 -5 -6 -13.5t-18.5 -32.5t-30.5 -45.5t-42 -47t-53 -43.5t-63.5 -28.5t-74.5 -7.5l-1 -1q-2 0 -2 -1q-26 -10 -53 -10q-52 0 -85 18.5t-45 44.5q1 -1 3 -2l2 -2l-2 2q-2 1 -3 2q-9 19 -9.5 42t8 51.5t32 63.5t59.5 72q67 67 144 67q10 0 14 -1q42 0 77.5 -28.5
t35.5 -70.5q0 -82 -73 -169zM-79 45h5h-5zM-103 49q2 -1 4 -1q-2 0 -4 1zM-67 45q3 0 4 1q-1 -1 -4 -1zM-61 46h4h-4zM-56 46q2 1 6 1q-4 0 -6 -1zM-50 47l12 3zM-38 50l18 6zM-11 61q6 2 8 4q-2 -2 -8 -4zM30 86q44 28 79.5 84t37.5 94q2 35 -27 35q-52 0 -109 -73
t-57 -116q0 -32 12 -40l3 3q13 17 34 18q8 0 26 -5q-4 -4 -7 -5q3 1 7 5h1zM6 70q1 0 3.5 1.5t3.5 2.5q-1 -1 -3.5 -2.5t-3.5 -1.5zM14 75q6 4 7 5q-1 -1 -7 -5z" />
    <glyph glyph-name="odieresis" unicode="&#xf6;" horiz-adv-x="384" 
d="M77 426q-18 0 -30 12t-12 29q0 18 12 30.5t30 12.5q17 0 29.5 -12.5t12.5 -30.5q0 -17 -12.5 -29t-29.5 -12zM221 426q-17 0 -29.5 12t-12.5 29q0 18 12.5 30.5t29.5 12.5t29.5 -12.5t12.5 -30.5q0 -17 -12.5 -29t-29.5 -12zM311 245l32 -16q-2 -5 -6 -13.5t-18.5 -32.5
t-30.5 -45.5t-42 -47t-53 -43.5t-63.5 -28.5t-74.5 -7.5l-1 -1q-2 0 -2 -1q-26 -10 -53 -10q-52 0 -85 18.5t-45 44.5q1 -1 3 -2l2 -2l-2 2q-2 1 -3 2q-9 19 -9.5 42t8 51.5t32 63.5t59.5 72q67 67 144 67q10 0 14 -1q42 0 77.5 -28.5t35.5 -70.5q0 -82 -73 -169
q84 38 154 156zM-124 57l1 -1h2h-1zM-79 45h5h-5zM-108 50q2 0 3 -1q-1 1 -3 1zM-103 49q2 -1 4 -1q-2 0 -4 1zM-67 45q3 0 4 1q-1 -1 -4 -1zM-56 46q2 1 6 1q-4 0 -6 -1zM-50 47l12 3zM-38 50l18 6zM-11 61q6 2 8 4q-2 -2 -8 -4zM30 86q44 28 79.5 84t37.5 94q2 35 -27 35
q-52 0 -109 -73t-57 -116q0 -32 12 -40l3 3q13 17 34 18q8 0 26 -5q-4 -4 -7 -5q3 1 7 5h1zM6 70q1 0 3.5 1.5t3.5 2.5q-1 -1 -3.5 -2.5t-3.5 -1.5zM14 75q6 4 7 5q-1 -1 -7 -5z" />
    <glyph glyph-name="oslash" unicode="&#xf8;" horiz-adv-x="385" 
d="M313 245l32 -16q-2 -5 -6 -13.5t-18.5 -32.5t-30.5 -45.5t-42 -47t-53 -43.5t-63.5 -28.5t-74.5 -7.5l-1 -1q-2 0 -2 -1q-26 -10 -53 -10q-33 0 -60 8l-53 -69l-23 17l49 64q-31 17 -43 43q1 -1 3 -2l2 -2l-2 2q-2 1 -3 2q-9 19 -9.5 42t8 51.5t32 63.5t59.5 72
q67 67 144 67q10 0 14 -1q26 0 46 -10l55 72l23 -17l-52 -69q41 -29 41 -75q0 -82 -73 -169q84 38 154 156zM122 299q-52 0 -109 -73t-57 -116q0 -18 4 -30l168 218q-1 0 -3 0.5t-3 0.5zM-122 57l1 -1h2h-1zM-72 45h-5h5zM-84 46h-6h6zM-90 46q-2 1 -5 1q3 0 5 -1zM-97 48
q-2 0 -4 1q2 -1 4 -1zM-22 55l2 1h2h-2zM-9 61q6 2 8 4q-2 -2 -8 -4zM32 86q44 28 79.5 84t37.5 94q0 10 -1 13l-143 -186q8 0 26 -5q-4 -4 -7 -5q3 1 7 5h1zM8 70q1 0 3.5 1.5t3.5 2.5q-1 -1 -3.5 -2.5t-3.5 -1.5zM16 75q6 4 7 5q-1 -1 -7 -5z" />
    <glyph glyph-name="ugrave" unicode="&#xf9;" horiz-adv-x="449" 
d="M315 423q-15 -26 -37 -26q-5 0 -32 25l-58 55.5t-39 36.5q1 4 3 10t17.5 16t40.5 10q49 -34 105 -127zM406 249l32 -16q-52 -103 -126 -175q-60 -57 -109 -57q-63 0 -77 58v-1q-22 -25 -56 -41t-64 -16q-45 0 -70.5 21t-34.5 47q-6 15 -6 41q0 43 23 90.5t52.5 81
t56.5 56t38 22.5q32 0 46.5 -15t12.5 -29l-1 -15q-68 -52 -99 -103.5t-31 -89.5q0 -7 1 -13t2 -10t3 -6.5t3.5 -4t3 -2t2.5 -0.5l1 -1q11 0 21 3q52 18 104 111q1 4 5 14v0l16 28q30 52 73.5 92.5t58.5 40.5q32 0 46.5 -15t13.5 -29l-1 -15q-53 -31 -89 -92t-31 -101
q0 -5 2 -9q12 -9 28 -4q28 7 65.5 45.5t60.5 73.5zM135 183q-1 -1 -1 -3q0 2 1 3z" />
    <glyph glyph-name="uacute" unicode="&#xfa;" horiz-adv-x="447" 
d="M233 381q-10 0 -19.5 6.5t-13.5 12.5l-5 6q25 42 51 74t40 43l14 11q25 0 40.5 -9t18.5 -18l3 -9q-9 -7 -40 -37l-57.5 -55t-31.5 -25zM404 245l32 -17q-51 -101 -126 -174q-60 -58 -109 -58q-63 0 -77 58v-1q-22 -24 -56.5 -40.5t-63.5 -16.5q-45 0 -70.5 21t-34.5 48
q-6 15 -6 40q0 43 23 90.5t52.5 81.5t56.5 56.5t38 22.5q20 0 33 -6t18 -15t7 -18t1 -15l-1 -6q-68 -51 -99 -103t-31 -89q0 -8 1 -14t2 -9.5t3 -6.5t3.5 -4.5t3 -2t2.5 -1.5h1q12 0 21 4q50 16 104 110q1 3 5 14v0q13 24 16 28q30 52 73.5 93t58.5 41q32 0 46.5 -15
t13.5 -30l-1 -15q-54 -30 -89.5 -91t-30.5 -102q0 -3 2 -9q12 -8 28 -3q28 7 65.5 45.5t60.5 73.5zM135 186q-1 -1 -1 -2zM133 179q-1 -1 -1 -4q0 3 1 4z" />
    <glyph glyph-name="ucircumflex" unicode="&#xfb;" horiz-adv-x="447" 
d="M146 387q-23 2 -30.5 13.5t-3.5 21.5l3 11q45 31 83 65.5t54 53.5l16 20q24 -14 38 -23q32 -28 58 -54.5t36 -38.5l9 -13q1 -16 -7.5 -30t-17.5 -20l-10 -6q-31 40 -57 67t-37 34l-10 7q0 -1 -1 -1q-34 -47 -65 -74t-44 -30zM404 249l32 -16q-52 -103 -126 -175
q-60 -57 -109 -57q-63 0 -77 58v-1q-22 -25 -56 -41t-64 -16q-45 0 -70.5 21t-34.5 47q-6 15 -6 41q0 43 23 90.5t52.5 81t56.5 56t38 22.5q32 0 46.5 -15t12.5 -29l-1 -15q-68 -52 -99 -103.5t-31 -89.5q0 -7 1 -13t2 -10t3 -6.5t3.5 -4t3 -2t2.5 -0.5l1 -1q11 0 21 3
q52 18 104 111q1 4 5 14v0l16 28q30 52 73.5 92.5t58.5 40.5q32 0 46.5 -15t13.5 -29l-1 -15q-53 -31 -89 -92t-31 -101q0 -5 2 -9q12 -9 28 -4q28 7 65.5 45.5t60.5 73.5zM135 191q0 -1 -1 -3v1q1 1 1 2zM133 183q-1 -1 -1 -3q0 2 1 3z" />
    <glyph glyph-name="udieresis" unicode="&#xfc;" horiz-adv-x="447" 
d="M170 411q-18 0 -30 12.5t-12 29.5q0 18 12 30.5t30 12.5q17 0 29.5 -13t12.5 -30t-12.5 -29.5t-29.5 -12.5zM314 411q-18 0 -30 12.5t-12 29.5q0 18 12 30.5t30 12.5q17 0 29.5 -13t12.5 -30t-12.5 -29.5t-29.5 -12.5zM404 249l32 -16q-52 -103 -126 -175
q-60 -57 -109 -57q-63 0 -77 58v-1q-22 -25 -56 -41t-64 -16q-45 0 -70.5 21t-34.5 47q-6 15 -6 41q0 43 23 90.5t52.5 81t56.5 56t38 22.5q32 0 46.5 -15t12.5 -29l-1 -15q-68 -52 -99 -103.5t-31 -89.5q0 -7 1 -13t2 -10t3 -6.5t3.5 -4t3 -2t2.5 -0.5l1 -1q11 0 21 3
q52 18 104 111q1 4 5 14v0l16 28q30 52 73.5 92.5t58.5 40.5q32 0 46.5 -15t13.5 -29l-1 -15q-53 -31 -89 -92t-31 -101q0 -5 2 -9q12 -9 28 -4q28 7 65.5 45.5t60.5 73.5zM133 183q-1 -1 -1 -3q0 2 1 3z" />
    <glyph glyph-name="yacute" unicode="&#xfd;" horiz-adv-x="447" 
d="M104 390q-10 0 -19.5 6t-14.5 12l-4 7q25 42 51 74t40 43l14 11q25 0 40.5 -9t18.5 -18l3 -9q-9 -7 -40 -37l-57.5 -55t-31.5 -25zM79 234v1v-1zM322 262l32 -17q-59 -123 -137 -189t-182 -104q-1 0 -1 -1q-51 -106 -107 -154.5t-89 -48.5q-36 0 -66 21t-29 75
q-1 2 -2 4.5t-1 3.5q-11 44 50 82.5t165 68.5h1l12 24q-43 -29 -70 -29q-34 0 -58.5 21.5t-33.5 46.5q-6 15 -6 41q0 43 23 90.5t53 81t57 56t37 22.5q32 0 46.5 -14.5t13.5 -29.5l-1 -15q-68 -52 -99 -103.5t-31 -89.5q0 -8 1 -14t2 -9.5t2.5 -6.5t3 -4.5t3 -2t2.5 -0.5
l1 -1q8 0 22 4q29 9 74.5 65.5t68.5 97.5q0 -1 -1 -1q32 58 52 88q42 52 65 52q33 0 68 -36q21 -22 9 -23q-39 -2 -92.5 -77t-109.5 -204v1q41 14 81.5 42.5t70 59.5t53 60t35.5 48zM-164 -158q24 11 62 65l-1 -1h-1q-76 -32 -95 -62q-7 -14 7 -13q3 1 8 2q16 6 20 9z" />
    <glyph glyph-name="ydieresis" unicode="&#xff;" horiz-adv-x="445" 
d="M22 416q-17 0 -29.5 12t-12.5 29q0 18 12.5 30.5t29.5 12.5t29.5 -12.5t12.5 -30.5q0 -17 -12.5 -29t-29.5 -12zM166 416q-17 0 -29 12t-12 29q0 18 12 30.5t29 12.5t29.5 -12.5t12.5 -30.5q0 -17 -12.5 -29t-29.5 -12zM77 234v1v-1zM320 262l32 -17q-59 -123 -137 -189
t-182 -104q-1 0 -1 -1q-51 -106 -107 -154.5t-89 -48.5q-36 0 -66 21t-29 75q-1 2 -2 4.5t-1 3.5q-11 44 50 82.5t165 68.5h1l12 24q-43 -29 -70 -29q-34 0 -58.5 21.5t-33.5 46.5q-6 15 -6 41q0 43 23 90.5t53 81t57 56t37 22.5q32 0 46.5 -14.5t13.5 -29.5l-1 -15
q-68 -52 -99 -103.5t-31 -89.5q0 -8 1 -14t2 -9.5t2.5 -6.5t3 -4.5t3 -2t2.5 -0.5l1 -1q8 0 22 4q29 9 74.5 65.5t68.5 97.5q0 -1 -1 -1q32 58 52 88q42 52 65 52q33 0 68 -36q21 -22 9 -23q-39 -2 -92.5 -77t-109.5 -204v1q41 14 81.5 42.5t70 59.5t53 60t35.5 48z
M-166 -158q24 11 62 65l-1 -1h-1q-76 -32 -95 -62q-7 -14 7 -13q3 1 8 2q16 6 20 9z" />
    <glyph glyph-name="Dcroat" unicode="&#x110;" horiz-adv-x="789" 
d="M717 684q64 -12 110 -61t46 -119q0 -73 -54 -162t-135.5 -167.5t-171.5 -145.5t-168.5 -106.5t-119.5 -39.5t-64 21t-26 42l-2 21q17 -11 65 -11q42 0 114 42q-27 3 -46 26.5t-19 67.5q0 72 88 209q-102 -7 -126 -28q-9 4 -7 31.5t17 40.5q25 20 161 22
q61 81 121.5 133.5t103.5 52.5q33 0 48 -14.5t13 -28.5l-2 -15q-22 0 -69 -38t-96 -96q83 -10 91 -35q8 -21 8 -35.5t-4 -18.5l-4 -5q-36 28 -138 35q-104 -145 -104 -254q0 -13 8 -23q95 63 190 153t164 191.5t69 170.5q0 2 -0.5 5t-0.5 4q-8 58 -106 58q-68 0 -155 -28
t-167 -74.5t-134.5 -116t-54.5 -143.5q0 -19 6 -36t12 -25l6 -7q-1 2 -10 -0.5t-23.5 4t-28.5 15.5t-24 34t-10 61q0 38 28 89.5t82 105t124.5 99t165.5 74.5t195 29q10 0 34 -4z" />
    <glyph glyph-name="Ydieresis" unicode="&#x178;" horiz-adv-x="683" 
d="M593 795q-18 0 -30 12.5t-12 29.5q0 18 12 30.5t30 12.5q17 0 29.5 -13t12.5 -30t-12.5 -29.5t-29.5 -12.5zM737 795q-18 0 -30 12.5t-12 29.5q0 18 12 30.5t30 12.5q17 0 29.5 -13t12.5 -30t-12.5 -29.5t-29.5 -12.5zM970 715q19 0 30.5 -9.5t13.5 -19.5l2 -10
q-82 -38 -151 -108t-115.5 -150.5t-88 -169.5l-77.5 -169.5t-73.5 -146t-86.5 -104.5t-108 -39q-35 0 -59 19.5t-32 50.5q-3 12 -3 25q0 27 18.5 48t56.5 21q-23 -19 -28.5 -40.5t4 -34.5t27.5 -13q9 0 21 5q52 25 152 220q-76 -81 -115 -81q-63 0 -97 44q-28 37 -28 103
q0 40 34 114t75 141.5t75 131.5t34 85q0 13 -13 13q-29 0 -80 -28t-98 -71.5t-70.5 -95.5t3.5 -100q-3 -6 -14.5 -8t-26.5 2t-29.5 13.5t-24.5 30t-10 48.5q0 37 30 85.5t78 92t117 73.5t138 31h4q49 0 78 -40t12 -99q-5 -16 -29.5 -59l-54 -91.5t-61.5 -107.5t-52 -107
t-25 -89t18 -55q10 0 28 15q69 58 254 301q86 154 170.5 243.5t176.5 89.5z" />
    <glyph glyph-name="a.alt1" unicode="&#xf002;" horiz-adv-x="445" 
d="M-171 -1q-38 0 -66.5 33.5t-33.5 60.5q-2 12 -2 19q0 50 43 109.5t98.5 98t93.5 38.5q68 0 113 -55q1 0 2 -1l2 1q54 57 73 57q32 0 52 -15t24 -30l4 -15q-50 -13 -85.5 -47t-50.5 -74q-38 -115 43 -213h-92q-19 7 -35 64t-12 94q-40 -49 -87.5 -87t-83.5 -38zM49 266
l2 2zM-50 280q-65 -28 -112 -111q-35 -65 -26 -92q4 -8 12 -8q7 0 11 1q67 16 208 193q1 2 3 4l1 1q-19 21 -52 21q-24 0 -45 -9zM119 -41q245 0 296 -63q22 -28 -4 -61q-28 -36 -98 -42t-113 19q-52 21 -103 82q24 5 98 -2q9 -10 51.5 -29t75.5 -19q44 0 44 9q0 17 -84 33
t-175 16q-80 0 -175 -26.5t-166 -76.5t-68 -105q-4 -2 -11.5 -4.5t-26 -4.5t-33 1.5t-26 21t-11.5 47.5q0 52 75 99.5t197.5 76t256.5 28.5z" />
    <glyph glyph-name="b.alt1" unicode="&#xf003;" horiz-adv-x="435" 
d="M25 614q23 0 50.5 -21t27.5 -56q0 -21 -25 -48t-71 -53t-125 -44t-174 -18q-179 0 -276 75q-72 54 -57 118q6 27 29 50q3 -7 10 -19t34 -42t61 -52.5t94.5 -41.5t130.5 -19q71 0 126.5 9.5t86.5 22.5t51.5 29.5t27 27.5t6.5 19v4q-2 18 -18 -3q-29 -30 -58 -64
q-9 -4 -24.5 -9.5t-56.5 -14.5t-73 -8q64 103 157 143q36 15 66 15zM-1 339q12 -5 20.5 -13t12 -15t5.5 -15.5t1.5 -14t-0.5 -11.5l-1 -6q0 -15 -17 -55.5t-46.5 -88.5t-79 -84t-103.5 -36q-51 0 -73 20.5t-26 59.5v7q-17 -45 -26 -81q-5 -5 -13.5 -5.5t-18 5.5t-18.5 17
t-15 31t-6 46q0 27 41 106.5t96 157.5q23 0 56 3.5t55 6.5l22 4q-42 -52 -83 -116q4 6 12 16q80 80 126 81h2q9 0 39 -15q24 1 38 -5zM-214 71q40 11 95.5 87t59.5 119q2 23 -16 23q-24 0 -80.5 -49.5t-97.5 -103.5q-4 -77 30 -77q6 0 9 1z" />
    <glyph glyph-name="d.alt1" unicode="&#xf004;" horiz-adv-x="445" 
d="M287 -65q24 0 40 3t19 6l4 3q9 -26 -13 -59t-73 -33q-81 0 -122.5 50t-46.5 132v17q0 31 9 64q-39 -48 -85 -82.5t-81 -34.5q-37 0 -63.5 29.5t-34.5 55.5q-4 18 -4 27q0 76 87 161.5t148 85.5q64 0 117 -51q7 12 14.5 23.5t12 19t5.5 8.5q23 0 56 3.5t54 6.5l22 4
q-58 -67 -96 -126.5t-52.5 -102.5t-16.5 -79.5t8 -59.5t26 -39.5t32.5 -23.5t31.5 -8h2zM-58 72q33 7 98.5 66.5t120.5 120.5l3 6q-31 26 -60 26q-20 0 -41 -8q-65 -25 -113 -108q-38 -65 -29 -95q3 -9 12 -9q6 0 9 1zM515 610q23 -2 49 -22.5t26 -54.5q0 -21 -25 -48
t-70.5 -53t-124.5 -44t-174 -18q-180 0 -278 75q-71 54 -57 118q6 27 29 50q3 -7 10 -19t34.5 -42t61.5 -53t94.5 -42t130.5 -19q71 0 127 9.5t87 22.5t51 29.5t26.5 28t6.5 19.5v1q0 8 -4.5 8t-8.5 -4l-4 -4l-60 -64q-9 -4 -24.5 -9.5t-55.5 -14.5t-72 -9q120 159 222 159
h3z" />
    <glyph glyph-name="d.alt2" unicode="&#xf006;" horiz-adv-x="441" 
d="M335 610q27 0 50.5 -15.5t29.5 -36.5q-13 6 -39.5 -2.5t-72.5 -44t-95 -95.5l-106 -150l-24 -39.5t-29.5 -50.5t-24.5 -51.5t-18 -56.5t1 -51.5t22 -48.5q-11 0 -36.5 -1.5t-45.5 -1.5q-26 19 -37 78q-3 10 -3 23v2v1v2q1 0 1 2q0 4 2 18q-86 -92 -142 -92
q-38 0 -66.5 33.5t-33.5 60.5q-2 12 -2 19q0 50 43 109.5t98.5 98.5t93.5 39q66 0 112 -54q5 8 11 16.5l13.5 19.5l12.5 18q174 251 285 251zM-226 71q67 16 208 193l3 3q0 1 1 1q-20 22 -52 22q-22 0 -45 -10q-64 -27 -111 -110q-36 -64 -27 -92q3 -9 12 -9q3 0 11 2z
M-12 267q0 -2 -1 -3q1 1 2 3t2 3zM6 -40q246 0 297 -63q22 -28 -4 -61q-29 -36 -98.5 -42t-112.5 18q-53 23 -103 83q24 4 97 -3q12 -11 53.5 -29.5t74.5 -18.5q43 0 43 10q0 17 -84 33t-174 16q-80 0 -175 -27t-166 -77t-68 -105q-4 -2 -11.5 -4.5t-26 -4.5t-33 1.5t-26 21
t-11.5 47.5q0 53 74.5 100.5t197 76t256.5 28.5z" />
    <glyph glyph-name="d.alt3" unicode="&#xf007;" horiz-adv-x="473" 
d="M181 88q36 0 84.5 40t79.5 80l31 40l33 -18q-33 -64 -88 -133.5t-111 -90.5q-16 -6 -34 -6q-36 0 -60 19t-31.5 37.5t-9.5 37.5q-86 -96 -145 -96q-38 0 -66.5 33.5t-33.5 60.5q-2 12 -2 19q0 50 43 109.5t98.5 98.5t93.5 39q64 0 110 -52q20 33 39 59q23 0 56 3.5
t55 7.5l22 3q-119 -155 -172 -288l1 -1q4 -2 7 -2zM-64 69q39 10 99 71t109 122q1 2 3 4v1q-19 22 -51 22q-21 0 -46 -10q-64 -27 -110 -110q-37 -66 -27 -93q3 -8 12 -8q7 0 11 1zM507 614q22 0 49.5 -21.5t27.5 -56.5q0 -21 -25 -47.5t-70.5 -52.5t-125 -44t-174.5 -18
q-178 0 -275 74q-72 54 -57 118q6 27 29 50q3 -7 10 -19t34 -42t60.5 -52.5t94 -41.5t130.5 -19q71 0 127 9.5t87 22.5t51.5 29.5t27 27.5t6.5 19q0 3 -1 4q-1 5 -3 7t-4.5 0.5t-5 -3.5t-4.5 -4l-1 -2l-58 -65q-9 -4 -24.5 -9.5t-56.5 -14.5t-73 -8q64 103 157 143
q38 16 67 16z" />
    <glyph glyph-name="g.alt1" unicode="&#xf008;" horiz-adv-x="416" 
d="M-80 1q-38 0 -66.5 33t-34.5 61q-1 6 -1 19q0 50 42.5 109.5t98 98.5t93.5 39q66 0 111 -53q42 53 66 53q33 0 68 -36q21 -22 8 -23q-34 -2 -102 -107t-121 -223q-51 3 -105 -5q7 14 10 21l33 65q-61 -52 -100 -52zM40 282q-65 -28 -112 -111q-35 -65 -26 -92q4 -8 12 -8
q7 0 11 1q64 16 204 188q1 1 3 5t4 6q-19 21 -51 21q-22 0 -45 -10zM80 -33q299 -5 297 -104q-2 -41 -44 -79q13 33 -27.5 59.5t-108.5 40t-145 15.5q-62 0 -111 -12.5t-67 -23t-18 -12.5q-27 -20 -23 -31q1 -4 8 -3q8 0 26 9q10 5 24 17.5t23.5 22.5t8.5 10q40 16 123 16
q-45 -87 -95 -123t-83 -36q-36 0 -65.5 21t-28.5 75v3l-1 2q0 10 2.5 21t19.5 33t46.5 38t91.5 28.5t147 12.5z" />
    <glyph glyph-name="h.alt1" unicode="&#xf009;" horiz-adv-x="390" 
d="M-272 0q-160 0 12 276q24 39 54 82q174 251 286 251q26 0 50 -16t30 -36q2 -10 2 -19q0 -37 -26.5 -65.5t-61.5 -46l-94 -48.5t-102 -63q-1 -1 -2 -1q-1 -2 -3 -5t-3 -5q-6 -8 -16 -24q0 2 2 2q-25 -31 -52 -74q60 65 118 108.5t88 43.5q4 0 6 -1q15 -1 38.5 -18
t23.5 -42q0 -11 -26 -54l-51 -87.5t-34 -99.5t24 -91q-12 1 -37.5 -1t-44.5 -2q-17 13 -28.5 47t-11.5 56q0 34 39.5 105.5t66.5 106.5l8 10q-56 -36 -99 -73t-69.5 -70t-42 -56t-28 -48t-15.5 -29q-1 -6 -1 -13zM91 549q-4 2 -22 -12.5t-49.5 -47t-66.5 -74.5q1 0 3 1
q42 25 72 47t43 36.5t18.5 25.5t5 16t-2.5 7q-1 0 -1 1zM-32 -41q247 0 297 -64q21 -28 -4 -60q-29 -36 -98.5 -42t-112.5 18q-53 23 -103 83q24 4 97 -3q12 -11 53.5 -29.5t74.5 -18.5q43 0 43 10q0 17 -84 33t-174 16q-80 0 -175 -27t-166 -77t-68 -105q-4 -2 -11.5 -4.5
t-26 -4.5t-33 2t-26 21t-11.5 48q0 52 74.5 99.5t197 76t256.5 28.5z" />
    <glyph glyph-name="h.alt2" unicode="&#xf00a;" horiz-adv-x="387" 
d="M-285 -1q-160 0 12 276q24 39 54 82q174 251 285 251q26 0 50 -15.5t30 -35.5q-14 5 -40 -3.5t-72 -44.5t-94 -95q-68 -89 -129 -185q57 57 107.5 93.5t77.5 36.5q5 0 6 -1q15 -1 39 -18t24 -42q0 -11 -26 -54l-51 -87.5t-34 -99.5t24 -91q-12 1 -38.5 -0.5t-43.5 -1.5
q-18 12 -29 45.5t-11 56.5q0 34 39.5 105.5t66.5 106.5l8 10q-56 -36 -99.5 -73t-70 -70t-42 -56t-28 -48t-15.5 -29q-1 -9 0 -13zM-45 -42q246 0 296 -63q22 -28 -4 -61q-28 -36 -98 -42t-113 19q-50 21 -103 82q25 5 98 -2q11 -11 52.5 -29.5t74.5 -18.5q44 0 44 9
q0 17 -84 33t-174 16q-81 0 -176 -26.5t-165.5 -76.5t-67.5 -105q-4 -2 -11.5 -4.5t-26.5 -5t-33 1.5t-26 21t-12 48q0 52 75 99.5t197.5 76t256.5 28.5z" />
    <glyph glyph-name="h.alt3" unicode="&#xf00b;" horiz-adv-x="435" 
d="M92 248l34 -16q-63 -111 -117 -167q-61 -63 -115 -63q-24 0 -53 25t-29 69q0 53 102 184l8 10q-57 -37 -102 -76t-71 -71.5t-42 -57.5t-27 -47t-15 -28l-1 -2v-2q-5 -3 -13 -4.5t-18 5t-19 17t-15 30.5t-6 46q0 28 40.5 106.5t96.5 158.5q23 0 56 3.5t55 7.5l22 3
q-2 -2 -12.5 -15.5l-19.5 -26l-22 -30.5t-26.5 -40l-26.5 -44q58 61 111.5 99.5t81.5 38.5h6q17 -3 39.5 -19t22.5 -42q0 -19 -47.5 -97.5t-40.5 -96.5q3 -9 17 -9q21 0 57.5 37.5t62.5 75.5zM101 537q0 -21 -25 -47.5t-70.5 -52.5t-125 -44t-174.5 -18q-179 0 -276 75
q-72 54 -57 118q6 27 29 50q3 -7 10 -19t34 -42t61 -53t94.5 -42t130.5 -19q71 0 126.5 9.5t86.5 22.5t51.5 29.5t27 27.5t6.5 19v5q-2 18 -18 -3q-29 -30 -58 -64q-9 -4 -24.5 -9.5t-56.5 -14.5t-73 -9q64 104 157 144q36 15 66 15q23 0 50.5 -21.5t27.5 -56.5z" />
    <glyph glyph-name="i.alt1" unicode="&#xf00c;" horiz-adv-x="193" 
d="M-399 -29h-92q-60 101 -26 203q1 1 1 5v1q23 68 81.5 129.5t79.5 61.5q32 0 47 -15.5t14 -30.5l-2 -15q-35 -20 -72 -66.5t-52 -84.5q-15 -39 -12 -79t11.5 -65t21.5 -44zM-425 -35q246 0 296 -63q22 -27 -4 -60q-28 -36 -98 -42.5t-113 18.5q-53 23 -103 83q24 4 97 -3
q11 -11 53 -29.5t75 -18.5q43 0 43 10q0 17 -84 33t-174 16q-80 0 -175 -27t-166 -77t-68 -105q-4 -2 -11.5 -4.5t-26 -4.5t-33 1.5t-26 21t-11.5 47.5q0 52 75 99.5t197.5 76t256.5 28.5zM-250 377q-26 0 -44.5 18t-18.5 44t18.5 44t44.5 18q25 0 43 -18t18 -44t-17.5 -44
t-43.5 -18z" />
    <glyph glyph-name="j.alt1" unicode="&#xf00d;" horiz-adv-x="203" 
d="M-123 375q-26 0 -44 18t-18 44q0 25 18.5 43.5t43.5 18.5t43.5 -18.5t18.5 -43.5q0 -26 -18 -44t-44 -18zM-366 -7q-52 2 -105 -5l10 20q26 49 61 123t38 79q96 171 143 171q33 0 68 -36q21 -22 8 -23q-34 -2 -101.5 -107t-121.5 -222zM-369 -12q299 -5 298 -104
q-2 -42 -44 -80q13 33 -27.5 59.5t-108.5 40t-145 15.5q-62 0 -111 -11.5t-67 -23.5l-18 -12q-27 -21 -23 -32q1 -4 8 -3q8 0 26 9q10 5 24 17.5t23.5 22.5t8.5 10q40 17 123 17q-45 -88 -95 -124t-83 -36q-36 0 -65.5 21.5t-28.5 75.5v2q-1 2 -1 3q0 10 2.5 21t19.5 33
t46.5 38t91.5 28.5t147 12.5h-1z" />
    <glyph glyph-name="k.alt1" unicode="&#xf00e;" horiz-adv-x="422" 
d="M99 537q0 -21 -25 -47.5t-70.5 -52.5t-125 -44t-174.5 -18q-179 0 -276 75q-72 54 -57 118q6 27 29 50q3 -7 10 -19t34 -42t61 -53t94.5 -42t130.5 -19q71 0 126.5 9.5t86.5 22.5t51.5 29.5t27 27.5t6.5 19v5q-2 18 -18 -3q-29 -30 -58 -64q-9 -4 -24.5 -9.5t-56.5 -14.5
t-73 -9q65 105 157 144q36 15 66 15q23 0 50.5 -21.5t27.5 -56.5zM79 248l34 -17q-4 -9 -12.5 -24.5t-35.5 -55.5t-55 -70t-70 -55t-83 -25q-86 0 -135 74q-15 20 -21 43q0 2 1 3q-27 -62 -40 -115q-5 -3 -13 -4.5t-18 5t-19 17t-15 30.5t-6 46q0 28 40.5 106.5t96.5 158.5
q23 0 56 3.5t55 7.5l22 3q-40 -50 -77 -106q24 26 48 44q57 39 99 42h5q81 0 83 -55q2 -50 -54 -105q-66 -64 -137 -63q-30 1 -55 15l-14 9q42 -79 122 -79q19 0 35 6q22 7 43.5 21.5t41.5 37t31 36t28.5 39.5t18.5 27zM-74 302q-1 20 -64 -13q-76 -41 -108 -85q0 -1 1 -3
t1 -3q8 -17 30 -17q35 0 81.5 40t56.5 71q2 8 2 10z" />
    <glyph glyph-name="k.alt2" unicode="&#xf00f;" horiz-adv-x="380" 
d="M-315 -3q-143 0 -18 225q33 59 85 133q174 251 285 251q27 0 50.5 -15.5t29.5 -36.5q-13 6 -39.5 -2.5t-72.5 -44t-95 -95.5q-41 -54 -87 -123q11 11 23 20q55 39 99 42q1 0 3 0.5t3 0.5q81 0 83 -55q2 -50 -54 -105q-65 -65 -137 -64q-30 1 -55 15l-14 9l8 -16t12 -22.5
t17 -27t25.5 -34.5t35.5 -39.5t48 -48.5q-44 2 -96 -4q-26 26 -63.5 78.5t-45.5 71.5q-4 -11 -5 -14q-7 -12 -16.5 -49.5t-8.5 -49.5zM-60 294q-1 20 -64 -13q-75 -41 -108 -85l3 -6q6 -17 30 -17q34 0 81 40t57 71q1 4 1 10zM-97 -44q245 0 296 -63q22 -28 -4 -61
q-28 -36 -98 -42t-113 18q-53 23 -103 83q24 4 98 -3q10 -10 52 -29t75 -19q44 0 44 10q0 17 -84 33t-175 16q-80 0 -175 -27t-166 -77t-68 -105q-4 -2 -11.5 -4.5t-26 -4.5t-33 1.5t-26 21t-11.5 47.5q0 53 75 100.5t197.5 76t256.5 28.5z" />
    <glyph glyph-name="k.alt3" unicode="&#xf010;" horiz-adv-x="393" 
d="M89 534q0 -21 -25 -48t-71 -53t-125 -44t-174 -18q-179 0 -276 75q-72 54 -57 118q6 27 29 50q3 -7 10 -19t34 -42t61 -53t94 -42t131 -19t126.5 9.5t86.5 23t51.5 29.5t27 27.5t6.5 19.5v4q-2 18 -18 -3l-59 -64q-9 -4 -24.5 -9.5t-56 -14.5t-72.5 -8q64 103 157 143
q35 15 66 15q23 0 50.5 -21t27.5 -56zM119 -50v-5q0 -14 -1.5 -21.5t-10.5 -19.5t-33 -17.5t-62 -5.5q-60 0 -114.5 23t-90 54.5t-63 67.5t-39.5 58.5t-14 30.5v2q-23 -53 -39 -115q-5 -3 -13 -4.5t-18.5 5.5t-19 17t-14.5 30.5t-6 46.5q0 27 41 106.5t96 157.5q23 0 56 3.5
t55 7.5l22 3q-45 -57 -77 -106q24 26 48 44q55 41 98 42q2 1 6 1q81 0 83 -55q2 -50 -54 -105q-65 -65 -137 -64q-30 1 -55 15l-14 9q8 -16 19.5 -33t44 -51t71 -58.5t101.5 -44t134 -19.5zM-85 298q-1 20 -63 -13q-76 -41 -108 -85q0 -2 2 -6q8 -17 30 -17q34 0 81 40
t57 71q2 7 1 10z" />
    <glyph glyph-name="l.alt1" unicode="&#xf011;" horiz-adv-x="231" 
d="M-305 88q36 0 85 40t80 80l31 39l33 -17q-34 -67 -92 -139t-116 -88q-12 -3 -25 -3q-25 0 -44.5 9t-29.5 21.5t-16.5 27.5t-8.5 25.5t-2 17.5q0 27 41 106.5t96 157.5q22 0 55 3.5t55 7.5l22 3q-119 -158 -171 -289q4 -2 7 -2zM21 613q23 0 50.5 -21t27.5 -56
q0 -21 -24.5 -48t-70.5 -53t-125.5 -44t-174.5 -18q-179 0 -276 75q-72 54 -57 118q6 27 29 50q3 -7 10 -19t34 -42t61 -53t94.5 -42t130.5 -19q71 0 126.5 9.5t86.5 22.5t51.5 29.5t27 28t6.5 19.5v4q-2 18 -18 -3q-29 -30 -58 -64q-9 -4 -24.5 -9.5t-56.5 -14.5t-73 -9
q64 104 157 144q36 15 66 15z" />
    <glyph glyph-name="m.alt1" unicode="&#xf012;" horiz-adv-x="605" 
d="M380 -42q248 0 297 -64q20 -27 -5 -59q-28 -36 -98 -42.5t-112 18.5q-52 23 -104 83q25 4 98 -3q11 -11 53 -29.5t75 -18.5q43 0 43 10q0 17 -84.5 33t-173.5 16q-80 0 -175 -27t-166 -77t-68 -105q-4 -2 -11.5 -4.5t-26 -4.5t-33 1.5t-26 21t-11.5 47.5q0 52 74.5 99.5
t197 76t256.5 28.5zM-40 -1q-28 0 -52 27.5t-31 61.5q-2 14 -2 20q0 43 23 90.5t52.5 81.5t56.5 56.5t37 22.5q20 0 33 -6t18 -15t7 -18t1 -15l-1 -6q-36 -20 -68 -64.5t-49 -89.5v-2q64 79 142 147.5t103 68.5h3q25 0 48.5 -23.5t23.5 -38.5t-21 -53l-1 -1q50 50 94.5 83
t60.5 33q5 0 7 -1q24 0 49 -30.5t16 -41.5q-45 -59 -72.5 -113t-36 -89.5t-8.5 -63t5.5 -40t11.5 -14.5q-22 0 -44 -0.5t-37 -0.5q-6 5 -12.5 16.5t-9.5 37.5t2.5 59t29.5 85t66 112l4 6q-84 -58 -149 -147t-75 -122q-11 8 -30.5 18.5t-29 19.5t-13.5 23q-3 9 -3 20
q0 28 22.5 73t44.5 76l22 31q-4 -4 -7 -6q-80 -71 -132.5 -140t-70 -98.5t-28.5 -29.5z" />
    <glyph glyph-name="n.alt1" unicode="&#xf013;" horiz-adv-x="441" 
d="M19 -44q245 0 296 -63q22 -28 -4 -61q-28 -35 -98 -41.5t-113 18.5q-50 21 -103 82q24 5 98 -2q9 -10 51.5 -29t75.5 -19q44 0 44 9q0 17 -84 33t-175 16q-80 0 -175 -26.5t-166 -76.5t-68 -105q-4 -2 -11.5 -4.5t-26 -4.5t-33 1.5t-26 21t-11.5 47.5q0 52 75 99.5
t197.5 76t256.5 28.5zM-223 -2q-35 2 -75 62q-12 20 -12 53q0 43 23 90.5t53 81.5t57 56.5t37 22.5q32 0 47 -15t13 -29l-1 -15q-37 -21 -70 -68t-51 -94q62 85 148 149.5t129 65.5h1q27 0 48 -23t21 -39q0 -18 -45.5 -93.5t-52.5 -94.5q-17 -29 -17 -65t8.5 -58.5
t13.5 -22.5h-92q-31 56 -20 130q4 27 31.5 76t52.5 84l26 35l-2 -1q-165 -108 -238 -247q-20 -41 -30 -41h-3z" />
    <glyph glyph-name="s.alt1" unicode="&#xf014;" horiz-adv-x="299" 
d="M-188 277q-31 -18 -110 -129l-21 28l23.5 36.5l25 38.5t23 32t27 32.5t28 24t33.5 20.5q33 14 71 14q23 0 38 -4q45 -14 45 -53q0 -24 -12.5 -35.5t-25.5 -11.5l-13 1q0 23 -4 30.5t-18 7.5q-12 0 -15 -15q-3 -27 -2.5 -41.5t4 -60.5t4.5 -70q2 -29 -7 -67.5t-23 -56.5
l-10 1q-10 1 -22.5 2.5t-28 2t-27.5 -0.5q37 41 22 201q-3 42 -3 74q-1 -1 -2 -1zM-204 -4q134 0 256.5 -28.5t197 -76.5t74.5 -100q0 -30 -11.5 -47.5t-27.5 -21t-32 -2t-27 5.5l-11 4q3 55 -67.5 105.5t-165.5 77t-175 27.5q-90 0 -174 -15.5t-85 -32.5q0 -10 44 -10
q33 0 74.5 18t53.5 29q32 3 59 4t37 0l11 -1q-44 -53 -113 -83q-43 -24 -113 -17.5t-98 42.5q-39 49 26 83q76 40 267 39z" />
    <glyph glyph-name="t.alt1" unicode="&#xf015;" horiz-adv-x="261" 
d="M-10 477q-25 -1 -145 1q26 31 45 49.5t35.5 26t25 9t25.5 1.5q18 0 31 -6.5t18.5 -15t9 -17.5t3.5 -15l1 -7q-19 -3 -49 -26zM-225 82q25 6 52.5 25.5t49.5 43t40.5 46t28.5 37.5l10 16l34 -18q-66 -121 -137.5 -177t-132.5 -56q-12 0 -30 6t-22 13q-33 15 -30 68
q4 103 124 277l29 39l116 -8q-13 -13 -25 -28q-21 -26 -42 -57q-27 -38 -47 -73t-35 -70t-11.5 -57.5t26.5 -26.5h2zM310 505q22 -4 22 -35q0 -30 -41 -57t-110 -27q-23 0 -307 16.5t-321 16.5q-42 0 -74.5 -8t-44.5 -16l-12 -8q-38 38 -6 67q31 28 114 28q62 0 308 -11h47
q47 0 114.5 1t136 4t119 10.5t55.5 18.5z" />
    <glyph glyph-name="u.alt1" unicode="&#xf016;" horiz-adv-x="406" 
d="M32 -40q248 0 297 -64q20 -27 -5 -59q-28 -36 -98 -42.5t-112 18.5q-52 23 -104 83q25 4 98 -3q11 -11 52.5 -29.5t74.5 -18.5q44 0 44 10q0 17 -84 33t-174 16q-80 0 -175 -27t-166 -77t-68 -105q-4 -2 -11.5 -4.5t-26 -4.5t-33 1.5t-26 21t-11.5 47.5q0 53 74.5 100.5
t197 75.5t256.5 28zM-194 3q-80 0 -105 68q-6 15 -6 41q0 43 23 90.5t53 81t57 56t37 22.5q32 0 46.5 -15t12.5 -29l-1 -15q-68 -52 -99 -103.5t-31 -89.5q0 -8 1 -14t2 -9.5t3 -6.5t3.5 -4.5t3 -2t2.5 -1.5h1q7 0 21 4q52 18 104 111q0 1 2 6t4 7q5 12 15 29q30 51 73.5 92
t58.5 41q32 0 46.5 -15t13.5 -29l-1 -15q-52 -30 -87 -90t-37 -103v-7t-0.5 -12t0.5 -15.5l2 -18.5t4 -21t7.5 -22.5t11 -21.5t15.5 -21q-15 -1 -48.5 -1h-49.5q-30 33 -39 88q-22 -23 -56 -39t-63 -16zM-62 195q-13 -39 -14 -77q3 41 14 77z" />
    <glyph glyph-name="y.alt1" unicode="&#xf017;" horiz-adv-x="435" 
d="M-46 -1q-80 0 -105 68q-6 15 -6 41q0 43 23 90.5t53 81t57 56t37 22.5q32 0 46.5 -15t13.5 -29l-1 -15q-68 -52 -99 -103.5t-31 -89.5q0 -37 15 -37q12 0 22 3q27 9 71 61.5t60 77.5v1q87 150 131 150q33 0 68 -36q21 -21 9 -22q-35 -3 -103 -108t-121 -222
q-52 2 -104 -5q2 4 3.5 7.5t3 7.5t2.5 6l18 33q-36 -24 -63 -24zM92 -31q298 -5 297 -104q-2 -41 -43 -79q13 32 -27.5 58.5t-109 40.5t-145.5 16q-62 0 -110.5 -12.5t-66.5 -23t-18 -12.5q-28 -22 -23 -32q2 -3 8 -3q11 2 25 10q7 3 15 9.5l15.5 13t13.5 13t9 10.5l4 3
q17 8 48 12t53 5h22q-45 -87 -95 -123.5t-83 -36.5q-37 0 -66.5 21.5t-27.5 75.5q-2 4 -2 5q0 10 2.5 21t19.5 32.5t46.5 38t92 29t146.5 12.5z" />
    <glyph glyph-name="b.alt2" unicode="&#xf018;" horiz-adv-x="399" 
d="M320 558q-14 5 -40 -3.5t-72 -44.5t-95 -95l-58 -80q36 24 59 24h2q9 0 39 -15q24 1 38 -5q12 -5 20.5 -12.5t12 -15t5 -16t1 -14t-1.5 -11.5v-6q0 -15 -17 -55.5t-46.5 -88.5t-79 -84t-103.5 -36q-69 0 -89 44q-9 -33 -7 -44q-167 0 27 301l39 58q175 251 286 251
q26 0 50 -16t30 -36zM119 300q-24 0 -80.5 -49.5t-97.5 -103.5q-4 -77 30 -77q6 0 9 1q40 11 95 87t59 119q3 23 -15 23z" />
    <glyph glyph-name="d.alt4" unicode="&#xf019;" horiz-adv-x="460" 
d="M515 610q28 0 53 -17t29 -41q-31 18 -70 -3q-5 1 -22.5 -12.5t-47 -44t-61.5 -69.5q-50 -54 -87 -114q-1 -1 -2 -1l-1 -1v-2q-127 -181 -119 -211l2 -4q4 -2 8 -2q36 0 84.5 39.5t79.5 78.5l31 40l32 -16q-46 -96 -119 -168q-60 -62 -112 -62q-46 0 -71.5 23.5
t-24.5 67.5q-95 -91 -139 -91q-38 0 -64.5 29.5t-33.5 54.5q-4 12 -4 28q0 76 86.5 161.5t147.5 85.5q62 0 108 -48q25 38 33 48q174 251 284 251zM156 243l17 28h-1q-21 19 -49 19q-20 0 -41 -8q-65 -25 -114 -110q-37 -65 -28 -93q3 -10 12 -10q1 0 4.5 0.5t5.5 0.5
q59 12 184 160zM185 289q1 1 3 4q-1 -1 -3 -4zM179 280l2 4zM194 303q-2 -2 -4 -6q2 4 4 6z" />
    <glyph glyph-name="k.alt4" unicode="&#xf01a;" horiz-adv-x="412" 
d="M300 247l33 -17q-4 -9 -12.5 -24.5t-35.5 -55.5t-55 -70t-69.5 -55t-82.5 -25q-84 0 -136 74q-13 20 -21 43q2 6 2 8q-1 -4 -3.5 -9t-4 -9t-2.5 -7q-7 -12 -16.5 -50t-8.5 -50q-167 0 27 301l39 58q175 251 286 251q26 0 50 -16t30 -36q-14 5 -40 -3.5t-72 -44.5t-95 -95
l-87 -121q9 8 27 22q53 39 98 42q1 0 3 0.5t3 0.5q81 0 83 -55q2 -50 -54 -105q-65 -65 -137 -64q-30 1 -55 15l-14 9q42 -79 122 -79q17 0 35 6q22 7 43 22t40.5 36t32 37t28.5 39t19 27zM146 301q-1 20 -63 -13q-76 -41 -108 -85q0 -2 2 -6q8 -17 30 -17q34 0 81 40t57 71
q2 7 1 10z" />
    <glyph glyph-name="h.alt4" unicode="&#xf01b;" horiz-adv-x="422" 
d="M306 247l33 -17q-63 -111 -117 -167q-61 -63 -114 -63q-24 0 -53 25t-29 69q0 59 102 185l8 10q-54 -35 -96 -70.5t-69.5 -69.5t-42 -54t-29.5 -49t-16 -30q-1 -7 -1 -16q-161 0 18 286l49 73q175 251 285 251q27 0 50.5 -15.5t29.5 -36.5q-14 5 -40 -3.5t-72 -44.5
t-95 -95q-62 -81 -126 -181q54 55 104 90t77 35h6q15 -1 39 -18t24 -43q0 -19 -48 -97.5t-41 -96.5q3 -9 17 -9q21 0 57.5 38t63.5 76z" />
    <glyph glyph-name="l.alt2" unicode="&#xf01c;" horiz-adv-x="229" 
d="M288 606q28 0 53 -17.5t29 -41.5q-30 17 -70 -2q-21 -9 -94.5 -88t-151 -188.5t-94.5 -179.5q0 -1 2 -3q3 -3 8 -3q23 0 51.5 16.5t52.5 39.5t45.5 46.5t33.5 40.5l12 16l32 -17q-47 -96 -119 -168q-63 -61 -112 -61q-46 0 -71.5 23.5t-24.5 67.5v-1q5 59 49 140l7 12
q7 11 17.5 29t26.5 43l34.5 51.5t41 55.5l45.5 56t48.5 51.5t50 42.5t50 28.5t48.5 10.5z" />
    <glyph glyph-name="s.alt2" unicode="&#xf01e;" horiz-adv-x="531" 
d="M-65 267q-30 -17 -107 -132l-24 32l24 38t25.5 39l24.5 34t28.5 33t30 24t36.5 20t41 9q7 1 21 1q19 0 31 -3q28 -6 40.5 -21.5t12.5 -32.5q0 -24 -13 -36t-26 -12l-13 1q0 23 -4 31t-18 8q-11 0 -14 -11q-2 -5 -3 -13t-0.5 -20t1.5 -22.5t2.5 -29l2.5 -30.5
q-11 -2 -48.5 -13t-41.5 -13q-1 24 -4 46q-3 42 -3 74q-1 -1 -2 -1zM-55 135q90 27 167.5 38.5t129 9t88 -14t53 -29t16.5 -38.5q0 -40 -20 -75l-5 7.5t-16.5 16t-29.5 21.5t-44.5 20t-61.5 14.5t-80.5 1.5t-100.5 -16q-117 -29 -175.5 -64.5t-62.5 -64.5q0 -1 -0.5 -2.5
t-0.5 -2.5l22 -4q90 0 113 92q42 19 99 30q-2 -41 -10.5 -72t-28.5 -61.5t-60 -47t-98 -16.5q-17 0 -32 6q-39 17 -59 58l-3 2q-21 44 33 100.5t167 90.5z" />
    <glyph glyph-name="f.alt1" unicode="&#xf01f;" horiz-adv-x="708" 
d="M309 244q183 0 179 -78q-1 -36 -34 -71v15q-14 54 -171 57h-19q-106 0 -197 -22t-131.5 -43t-70.5 -44v-6q15 -112 15 -234q0 -43 -11 -74t-27 -44.5t-32.5 -20.5t-27.5 -7h-11q-36 0 -63 16q-58 34 -58 123q0 117 125 351q68 127 139 200.5t111 91.5q14 6 55 -2t46 -23
q19 -55 -36.5 -116t-99.5 -58q65 82 72 126v2q-134 -141 -210 -271l1 -1q59 53 181.5 93t274.5 40zM-147 110l-6 -9zM-224 -277q30 14 38 286q1 19 1 28v6q-73 -146 -73 -250q0 -29 8 -50t21 -21q3 0 5 1zM-182 47q2 4 2 5q0 -1 -2 -5zM-178 56l3 6zM-169 75q1 1 2.5 3.5
t2.5 3.5q-1 -1 -2.5 -3.5t-2.5 -3.5z" />
    <glyph glyph-name="p.alt1" unicode="&#xf020;" horiz-adv-x="670" 
d="M308 282q183 0 179 -78q-1 -36 -34 -71v15q-14 54 -169 58h-21q-244 0 -386 -99q1 -1 1 -3q7 -33 27 -33q2 0 4.5 0.5t3.5 0.5q40 8 99 89q63 20 128 28q-35 -74 -91.5 -130.5t-129.5 -56.5q-69 0 -90 52q-7 14 -7 31q0 1 0.5 2.5t0.5 2.5q0 -1 -0.5 -2.5t-0.5 -2.5v-1
l-1 -1q0 1 1 2l-1 -2q-60 -113 -90 -192.5t-31 -102.5v-23q-25 0 -49.5 26.5t-24.5 60.5q0 88 129 302q70 115 105.5 161.5t57.5 47.5q23 1 39 -3.5t21 -9.5l4 -5q-3 -1 -24 -31q1 0 1 1q57 48 93 48q1 0 2.5 -0.5t2.5 -0.5q46 -7 71 -19q42 -19 40 -61q-54 -8 -106 -23
q8 22 5 34q-2 11 -13 11q-19 0 -59.5 -32t-80.5 -77q-4 -1 -10 -5q6 4 10 5l-6 -6q69 41 173 67t227 26zM-142 160h1l1 1l-1 -1h-1zM-129 169q-6 -4 -9 -7q3 3 9 7zM-129 169q7 5 21 13q-14 -8 -21 -13z" />
    <glyph glyph-name="q.alt1" unicode="&#xf021;" horiz-adv-x="742" 
d="M500 107q184 0 180 -78q-2 -36 -35 -71v15q-14 54 -169 58h-21q-193 0 -347 -78q-76 -48 -91 -74q-9 -14 -6 -26q0 -2 2 -6q-3 20 24.5 47t56.5 43.5t27 9.5q-18 -46 -32.5 -92t-20.5 -69l-5 -22h-3q-29 2 -68 29t-39 60q0 19 18 51t44 52q5 5 20.5 16.5t60 36.5t97 45.5
t135.5 36.5t172 16zM56 39q-45 -38 -83 -38q-25 0 -47 15t-31.5 28.5t-15.5 26.5l1 1v-1q0 1 -0.5 1t-0.5 1q-9 18 -9 41q0 50 43 110t99 99t94 39q62 0 108 -48l2 -2q38 50 58 50q22 0 40 -4.5t24 -9.5l7 -4q-38 -26 -162 -260q0 -1 -13 -31q-96 -40 -146 -81q4 10 34 70z
M-102 61l1 -1h2h-1zM-111 65q1 -1 2 -1q-1 0 -2 1zM-90 60h6h-6zM-30 71q28 0 73 37.5t75.5 73.5t57.5 72q2 4 6.5 11t7.5 10q-22 20 -51 20q-10 0 -26 -4q-68 -17 -122 -105q-41 -65 -37 -102q2 -14 13 -14h1l2 1q-4 -2 -5 -2q1 0 5 2zM-81 60q5 0 17 2q-12 -2 -17 -2z
M-44 66q1 0 2.5 0.5t2.5 1.5q-1 -1 -2 -1q-2 -1 -3 -1z" />
    <glyph glyph-name="j.alt2" unicode="&#xf022;" horiz-adv-x="996" 
d="M622 470q-26 0 -44.5 18.5t-18.5 43.5t18.5 43.5t44.5 18.5q25 0 43 -18t18 -44t-18 -44t-43 -18zM603 417q-35 -1 -82.5 -60t-95.5 -159l-121 -52q20 38 45.5 92t33.5 67q33 61 74 116t68 55q34 0 69 -37q20 -21 9 -22zM795 261q184 0 179 -79q-2 -36 -34 -71v15
q-14 54 -169 58h-21q-200 0 -480 -123l-1 -1q-120 -56 -145 -103q-11 -22 8 -24h3q11 0 29 9q11 6 40 37.5t53 62.5q7 3 57 26t72 32q-105 -252 -220 -252q-37 0 -66.5 20.5t-28.5 73.5v3q-19 45 31 86t158 87l1 1l84 33.5l90 35.5t79 27t92.5 25.5t86.5 13.5t102 7z" />
    <glyph glyph-name="g.alt2" unicode="&#xf023;" horiz-adv-x="838" 
d="M-180 68l-2 2q-9 22 -9 41q0 76 87.5 162t148.5 86q62 0 108 -48q1 -1 4 -3l3 -2q30 32 48 32q34 0 69 -37q20 -21 9 -22q-35 -1 -82.5 -60t-95.5 -159l-121 -52q12 22 17 33q-21 -18 -47.5 -30.5t-44.5 -12.5q-36 0 -60 23.5t-33 46.5v1q0 -1 1 -1zM-163 58q2 0 3 -1
q-1 1 -3 1zM-174 63q1 0 1 -1zM-169 60h2h-2zM-166 59q1 0 2 -1q-1 1 -2 1zM-151 57h6h-6zM52 288q-68 -17 -122 -105q-41 -66 -36 -101q2 -14 13 -14h2q-1 0 -2.5 -1t-2.5 -1q1 0 2.5 1t2.5 1q25 0 62.5 28.5t73.5 70t55.5 66.5l28.5 37q1 0 1 1q-19 21 -52 21
q-14 0 -26 -4zM-142 57q3 0 8.5 0.5t8.5 1.5q-3 -1 -8.5 -1.5t-8.5 -0.5zM-104 64q3 0 5 1q-2 -1 -5 -1zM478 123q184 0 179 -79q-2 -36 -34 -71v15q-14 54 -169 58h-21q-200 0 -480 -123l-1 -1q-120 -56 -145 -103q-11 -22 8 -24h3q11 0 29 9q11 6 40 37.5t53 62.5
q7 3 57 26t72 32q-105 -252 -220 -252q-37 0 -66.5 20.5t-28.5 73.5v3q-19 45 31 86t158 87l1 1l84 33.5l90 35.5t79 27t92.5 25.5t86.5 13.5t102 7z" />
    <glyph glyph-name="o.alt1" unicode="&#xf024;" horiz-adv-x="685" 
d="M433 262q183 0 178 -79q-2 -36 -34 -71v15q-14 55 -167 59h-23q-230 0 -377 -93q0 -1 -1 -1q12 -2 21 -5q2 2 4 2q27 20 31 24q16 8 60.5 22t75.5 20q-16 -32 -45 -67q-33 -37 -78 -62.5t-79 -25.5q-27 0 -77 24.5t-58 49.5q-30 93 95 220q66 67 145 67q9 0 23 -2
q12 -2 34 -13t46 -34.5t24 -50.5q0 -6 -1 -10q-10 -3 -41.5 -10t-49.5 -14q12 33 11 51q-2 24 -29 24q-53 0 -110 -73t-57 -117v-9q41 59 173 109t306 50zM-13 72h2h-2zM-16 72h2h-2zM-26 74h1q1 -1 2 -1q-1 0 -3 1zM-6 72h1h-1zM29 86l1 1zM4 74h1h-1zM14 78h1h-1zM19 80
l1 1q0 -1 -1 -1zM24 83z" />
    <glyph glyph-name="y.alt2" unicode="&#xf025;" horiz-adv-x="772" 
d="M-95 -2q-80 0 -105 68q-6 20 -6 41q0 43 23 90.5t53 81t57 56t37 22.5q32 0 46.5 -14.5t13.5 -29.5l-1 -15q-68 -52 -99 -103.5t-31 -89.5q0 -7 1 -13t2 -10t2.5 -6.5t3 -4t3 -2t2.5 -1.5h1q12 0 22 3q56 19 106 106v1l1 2l1 1q2 4 3 5q86 150 130 150q34 0 69 -36
q20 -21 9 -22q-35 -2 -82.5 -60.5t-95.5 -158.5l-49.5 -22t-48.5 -21l-21 -9q-1 0 -2 -1l1 1q-24 -9 -46 -9zM442 122q182 0 178 -79q-1 -36 -34 -72v15q-14 55 -167 59h-23q-198 0 -480 -124l-1 -1q-122 -57 -145 -104q-9 -22 11 -23q11 0 29 9q12 6 41.5 38t51.5 63
q11 4 61 27t68 30q-105 -252 -220 -252q-36 0 -66 20.5t-29 73.5v4q-19 45 31 86t158 86l1 1q19 7 84.5 33.5t89.5 35.5t80 27.5t92 26t87.5 14t101.5 6.5z" />
    <glyph glyph-name="b.alt3" unicode="&#xf026;" horiz-adv-x="699" 
d="M394 305q183 0 179 -79q-2 -36 -34 -71v15q-15 54 -171 58h-19q-105 0 -195 -21t-131 -42t-71 -44q0 -6 1 -9q4 -39 28 -39h4q47 6 115 108q51 20 125 29q-14 -34 -34 -66.5t-48.5 -66t-67.5 -54t-80 -20.5q-86 0 -97 67q-3 15 -3 34l16 33q5 9 11 18q16 18 33 30
q64 50 180 85t259 35zM-84 149q-20 -29 -26 -58q-12 -31 -17 -54t-3 -31l1 -8q-161 0 12 279q24 39 54 82q177 253 287 253q27 0 52 -17t30 -40q-21 7 -86 -31.5t-115 -97.5q-15 -16 -34.5 -41t-34 -45.5l-27 -39t-13.5 -19.5q2 1 4.5 3.5l4.5 4.5q79 75 122 75h1
q35 -2 77 -20q31 -13 36 -40q-37 -6 -96 -24q1 7 0 12q-2 13 -15 13q-27 0 -92 -60q-68 -30 -120 -92q-1 -1 -2.5 -3.5t-2.5 -3.5z" />
    <glyph glyph-name="z.alt1" unicode="&#xf027;" horiz-adv-x="758" 
d="M492 201q183 0 178 -79q-2 -36 -34 -71v15q-14 54 -169 58h-21q-96 0 -188 -20.5t-156 -49.5t-114 -60.5t-74.5 -54.5t-25.5 -30q0 -1 2 -1q72 0 115.5 36.5t47.5 78.5q3 2 43 18.5t41 16.5q-5 -27 -21 -68q-28 -62 -80.5 -106t-93.5 -44q-42 0 -83.5 28.5t-42.5 57.5v1
q0 31 65.5 78t162 90.5t220.5 74.5t228 31zM-112 158q-10 1 -16.5 7t-8.5 11l-2 5q33 63 56.5 98.5t49.5 54.5t49 23.5t64 4.5q42 0 53 -17h2q18 -4 28.5 -19.5t12.5 -28.5l2 -13q-86 -19 -123 -75h1q8 4 19 2.5t15.5 -3t11 -5.5t7.5 -4q25 -15 33 -58q-5 -2 -22 -8
t-31 -11.5t-18 -7.5q2 35 -11 35q-22 0 -42.5 -20.5t-29.5 -42.5q-2 -4 -2 -5q-18 0 -39 23t-21 40q0 19 30 56t60 64l29 28q-27 2 -66 -31.5t-65 -68.5z" />
    <glyph glyph-name="a.alt2" unicode="&#xf029;" horiz-adv-x="722" 
d="M539 405q8 0 20.5 -5.5t28.5 -17.5t24 -40t2 -65q-7 -39 -70.5 -104.5t-155 -119.5t-160.5 -54q-31 0 -54.5 17t-34.5 46q-8 22 -8 47q0 -1 -2 -3q1 2 2 6.5t1 6.5q0 -2 -1 -6.5t-2 -6.5q-84 -107 -150 -107q-38 0 -66.5 33.5t-33.5 60.5q-2 6 -2 19q0 50 42.5 109.5
t98 98.5t93.5 39q65 0 114 -55v-1q0 -1 -3 -4.5t-4 -5.5q1 2 4 5.5t3 4.5h1q51 56 72 56q32 0 51.5 -14.5t23.5 -29.5l4 -15q-69 -17 -108.5 -72.5t-36.5 -102.5q2 -13 5 -19q5 -10 12 -14q6 -3 12 -3q5 0 13 3q23 8 65 39t87.5 74t79 98t33.5 102zM211 284q1 0 2 2l1 2
l-1 -2q-1 -2 -2 -2zM-16 71q67 16 208 193q3 2 3 3l1 1q-19 22 -52 22q-20 0 -45 -10q-64 -27 -111 -110q-36 -64 -27 -92q3 -9 12 -9q5 0 11 2zM135 131q-2 -6 -2 -8q0 2 2 8zM182 241q0 -1 -1 -1l-1 -2l1 1q1 1 1 2zM176 231q0 -2 -2 -4q2 2 2 4zM157 194q-1 -1 -1 -3
t-1 -3q1 1 1 3t1 3zM148 171q0 -1 -2 -4t-2 -5q0 2 2 5t2 4zM143 158q-1 -1 -2 -4.5t-1 -5.5q0 2 1 5.5t2 4.5zM138 144q0 -1 -0.5 -4t-1.5 -4q2 4 2 8z" />
    <glyph glyph-name="c.alt1" unicode="&#xf02a;" horiz-adv-x="514" 
d="M85 177q104 56 104 121q51 2 74 -30q0 -29 -30.5 -60t-70 -43.5t-77.5 3.5q-3 0 -4 2t0.5 4t3.5 3zM339 384q36 0 63 -30t21 -82q-5 -43 -34 -90.5t-75.5 -88.5t-113.5 -67.5t-140 -26.5q-54 0 -93.5 22t-52.5 63q-5 18 -5 37q0 43 19 82t47 65.5t61.5 47t62.5 30t49 9.5
q44 0 79.5 -26t35.5 -61q-23 32 -74 30q-68 0 -121.5 -46t-65.5 -97q-1 -2 -1 -5q-2 -10 -2 -14q0 -32 20.5 -47.5t71.5 -15.5h14q68 18 117 57t72.5 86t34 88.5t10.5 79.5z" />
    <glyph glyph-name="d.alt5" unicode="&#xf02b;" horiz-adv-x="725" 
d="M550 550q-67 -49 -152 -157t-138.5 -196.5t-49.5 -102.5l1 -1q1 -1 1 -2q3 -3 9 -3q1 0 4.5 0.5t5.5 0.5q31 5 76.5 29.5t90 60.5t73 85t22.5 95q5 1 14.5 1t26 -3.5t27 -14t16.5 -31.5t-4 -55q-7 -27 -33.5 -65t-69 -79.5t-107.5 -73.5t-137 -39q-40 -4 -70 17.5
t-35 56.5q0 3 -0.5 9t-0.5 10q6 61 49 139q2 2 5.5 6.5t5.5 6.5l16 28v0q-22 19 -50 19q-20 0 -41 -8q-65 -25 -114 -110q-37 -65 -28 -93q3 -10 12 -10q1 0 5 0.5t5 0.5q62 13 184 160q-43 -78 -49 -139q-96 -92 -139 -92q-38 0 -64.5 30t-33.5 55q-4 12 -4 28
q0 50 42.5 109.5t98 98.5t93.5 39q62 0 108 -48q0 -1 -1 -2.5l-2 -3t-1 -2.5q-2 -2 -4 -6q5 7 8 14q25 38 33 48q175 251 284 251q28 0 53 -17t29 -41q-35 18 -70 -3zM208 289q2 4 3 5q-1 -1 -3 -5z" />
    <glyph glyph-name="e.alt1" unicode="&#xf02c;" horiz-adv-x="496" 
d="M3 194q10 17 29 33q-2 -2 -3 -2q5 -19 25 -23.5t40 0.5t38 15q23 12 33 31.5t9 32.5l-2 13q51 8 72 -24v-4q0 -45 -48.5 -90t-112.5 -45q-67 0 -78 64q-1 -1 -2 -1zM334 355q5 2 21 -3.5t32 -22t16 -39.5q0 -74 -57 -143t-134 -108t-141 -39q-131 0 -162 84q-6 18 -6 40
q0 51 27 97t65.5 74.5t76 45t61.5 16.5q41 0 75 -27.5t36 -59.5q-21 32 -72 24q-78 0 -140 -67q-19 -16 -29 -33q-21 -21 -21 -55q0 -11 3 -22q15 -43 87 -43q8 0 24 2q89 14 163.5 105t74.5 174z" />
    <glyph glyph-name="h.alt5" unicode="&#xf02d;" horiz-adv-x="611" 
d="M384 345q6 1 24.5 -12.5t31.5 -41t1 -56.5q-28 -68 -74 -118.5t-92 -73.5t-79 -33t-53 -10q-37 0 -68.5 18t-39.5 52q-3 12 -3 24q0 54 102 185l8 10q-56 -36 -99.5 -73t-70 -70t-42 -56t-28.5 -48.5l-15 -29.5q-2 -8 0 -13q-150 0 -8 245q31 52 74 114q175 251 285 251
q27 0 50.5 -15.5t29.5 -36.5q3 -8 3 -20q0 -37 -26.5 -65t-61.5 -45.5l-94 -48.5t-102 -63l-2 -2q-1 -1 -2 -3q-3 -4 -4 -6q-12 -16 -17 -24l2 2q-28 -33 -51 -74q59 65 117 108t88 43h6q15 -1 39 -18t24 -43q0 -19 -47.5 -97.5t-41.5 -96.5q3 -9 17 -9q5 0 7 1
q26 7 79 50.5t96.5 102.5t36.5 96zM250 548q-4 2 -22 -12t-49.5 -46.5t-66.5 -74.5q1 1 2 1q43 25 72.5 47.5t42.5 36.5t19 25t5 16t-3 7z" />
    <glyph glyph-name="i.alt2" unicode="&#xf02e;" horiz-adv-x="370" 
d="M166 371q-26 0 -43.5 17.5t-17.5 43.5t17.5 43.5t43.5 17.5t44 -18t18 -43t-18 -43t-44 -18zM212 279q29 4 50.5 -23.5t6.5 -73.5q-14 -44 -50 -80.5t-78 -57.5t-80.5 -32.5t-65.5 -11.5q-35 0 -59 20.5t-33 54.5q-4 16 -4 38q0 43 23 90.5t52.5 81t56.5 56t37 22.5
q20 0 33.5 -6t18.5 -14.5t7 -17.5t1 -15l-1 -6q-42 -24 -74.5 -69.5t-42.5 -87.5q-8 -34 2 -52q1 -4 7 -10q4 0 12 2q59 11 120 75t61 117z" />
    <glyph glyph-name="k.alt5" unicode="&#xf02f;" horiz-adv-x="519" 
d="M30 140q27 -24 61 -42.5t79.5 -31t96 0t94.5 53.5q0 -20 -6 -40t-22.5 -44.5t-54 -39.5t-92.5 -15q-44 0 -88.5 19t-77 47t-53.5 51.5t-30 38.5q-12 -26 -14 -32q-7 -12 -16.5 -50t-7.5 -50q-150 0 -8 245q31 52 74 114q175 251 285 251q27 0 50.5 -15.5t29.5 -36.5
q-14 5 -40 -3t-72 -44t-94 -96q-31 -39 -88 -122l24 20q55 39 98 42h6q81 0 83 -54q3 -50 -53 -105q-64 -65 -135 -64q-15 0 -29 3zM154 303q-1 14 -35.5 0.5t-76.5 -43t-60 -55.5q0 -1 2 -7q8 -17 30 -17q35 0 81.5 40.5t56.5 71.5q2 6 2 10z" />
    <glyph glyph-name="l.alt3" unicode="&#xf030;" horiz-adv-x="483" 
d="M295 609q28 0 52.5 -17t28.5 -41q-31 17 -69 -3q-52 -33 -116 -107t-112.5 -147t-81.5 -132.5t-30 -69.5l1 -1v-2q3 -2 9 -2h4q63 3 140 77t77 140q65 0 65 -76q0 -54 -52.5 -109t-120 -87.5t-117.5 -32.5q-87 0 -95 74q-1 6 -1 17q5 58 48 139l11 17q10 18 26 44.5
t40 61l50 69.5t57.5 69t61.5 60.5t63 42.5t61 16z" />
    <glyph glyph-name="m.alt2" unicode="&#xf031;" horiz-adv-x="811" 
d="M649 309q19 0 41.5 -17t22.5 -47q0 -60 -54.5 -118.5t-125.5 -92t-125 -33.5q-23 0 -52 24.5t-29 68.5v1l4 -4l-4 4q0 25 21.5 66.5t40.5 69t34 46.5q1 1 3.5 4t3.5 4l12 15l-12 -15q-1 -1 -3.5 -4t-3.5 -4l4 6q-84 -58 -149 -147.5t-75 -122.5q-11 8 -30.5 18.5t-29 20
t-13.5 23.5q-3 7 -3 19q0 28 22.5 73t44.5 77l22 31l-7 -7q-52 -46 -93 -91t-61.5 -75t-35.5 -54t-24 -35.5t-17 -11.5q-28 0 -52 27.5t-31 61.5q-2 7 -2 20q0 43 23 90.5t52.5 81t56.5 56t37 22.5q32 0 46.5 -15t13.5 -29l-2 -15q-36 -21 -68 -65t-49 -90v-1
q65 78 142.5 146.5t102.5 68.5h3q25 0 48.5 -23t23.5 -39q0 -15 -21 -52q-1 -1 -1 -2q49 51 94 83.5t61 32.5h7q23 0 45.5 -23t22.5 -39q0 -19 -45.5 -93.5t-43.5 -94.5q0 -14 18 -14h1l-20 -9q37 12 74 33t70.5 49.5t51.5 65.5t12 74z" />
    <glyph glyph-name="n.alt2" unicode="&#xf032;" horiz-adv-x="620" 
d="M468 293q25 0 44 -16.5t19 -42.5q0 -44 -40.5 -98t-109.5 -94.5t-139 -40.5q-20 0 -45.5 17.5t-33.5 50.5q-3 12 -3 25q0 28 27.5 76.5t54.5 83.5l28 35q-1 0 -2 -1q-166 -108 -237 -247q-2 -4 -5 -9t-4.5 -8t-3.5 -6.5l-3.5 -6t-3.5 -4.5t-3.5 -3t-3.5 -2t-4 -1h-3
q-35 1 -75 61q-11 20 -11 54q0 43 23 90.5t52.5 81t56.5 56t38 22.5q20 0 33 -6t18 -14.5t7 -17t1 -14.5l-1 -6q-37 -22 -70 -69.5t-50 -92.5q62 86 147.5 150t129.5 64q28 0 48.5 -23t20.5 -39q0 -18 -39 -82.5t-46 -83.5q-13 -37 14 -37q3 0 5 1q44 9 112.5 80.5
t56.5 116.5zM301 335q-5 -14 -23 -36q18 22 23 36q2 6 2 8q0 -2 -2 -8z" />
    <glyph glyph-name="o.alt2" unicode="&#xf033;" horiz-adv-x="357" 
d="M241 260q0 -85 -74 -171h1q-34 -34 -54 -48.5t-50 -28.5q-28 -11 -53 -11q-52 0 -85 18.5t-45 44.5l9 -6l-9 6q-9 19 -9.5 42t8 51.5t32 63.5t59.5 72q67 67 144 67q10 0 14 -1q42 0 77 -28.5t35 -70.5zM-20 59q67 22 123 83.5t56 124.5q2 34 -27 34q-52 0 -110 -73
t-56 -116q1 -34 14 -53z" />
    <glyph glyph-name="r.alt1" unicode="&#xf034;" horiz-adv-x="451" 
d="M301 361q34 0 48.5 -17.5t14.5 -36.5q0 -1 -1 -1t-2 -1q-20 -19 -44.5 -59.5t-22.5 -59.5q1 -6 14.5 -6.5t19.5 4.5q4 -5 4.5 -13.5t-4.5 -18.5t-14 -18.5t-26.5 -14.5t-40.5 -6q-18 0 -29.5 12.5t-13.5 22.5t-2 17q0 28 16.5 57.5t29.5 43t24 22.5l2 2
q-67 -43 -116.5 -89.5t-74 -80.5t-39.5 -62t-23.5 -42.5t-16.5 -14.5q-12 0 -25.5 8t-21 16t-15.5 19l-9 10q-18 18 -18 62q0 43 23 90.5t52.5 81.5t56.5 56.5t38 22.5q20 0 33 -6t18 -14.5t7 -17t1 -14.5l-1 -6q-38 -23 -71 -70t-49 -93l1 1v1q63 85 148.5 149t128.5 64z
" />
    <glyph glyph-name="t.alt2" unicode="&#xf035;" horiz-adv-x="419" 
d="M-15 367q-16 -18 -48 -61q-26 -38 -45.5 -72.5t-34 -68.5t-11.5 -56t26 -26q2 0 3 1q62 14 131 96.5t68 127.5q3 2 14 0t23 -5.5t21.5 -16t9.5 -30.5q0 -59 -55.5 -120t-127.5 -98t-126 -37q-46 0 -69 22t-25 48q-7 102 123 289q6 9 10 14q-168 10 -184 10
q-22 -2 -31.5 -10t-11 -14.5t-2.5 -6.5q-21 -2 -28 20q-10 29 18 45q19 11 49 11q68 0 225 -7q43 57 73.5 85.5t46.5 34t39 5.5q28 0 43.5 -15t17.5 -30l2 -15q-42 -14 -100 -70q69 -3 98 -3q7 0 11.5 3.5t8 8.5t5.5 6q3 2 6 2.5t5 -0.5l2 -1q1 -3 2 -8t1 -17t-4 -21.5
t-16.5 -17.5t-32.5 -8q-18 0 -130 6z" />
    <glyph glyph-name="u.alt2" unicode="&#xf036;" horiz-adv-x="671" 
d="M494 248q37 0 54.5 -26t17.5 -62q-23 11 -57 -1.5t-72 -38l-78 -52.5t-86.5 -47t-85.5 -20q-63 0 -77 58v-1q-22 -25 -56 -41t-64 -16q-45 0 -70.5 21t-34.5 47q-6 15 -6 41q0 43 23 90.5t52.5 81t56.5 56t38 22.5q32 0 46.5 -15t12.5 -29l-1 -15q-68 -52 -99 -103.5
t-31 -89.5q0 -7 1 -13t2 -10t3 -6.5t3.5 -4t3 -2t2.5 -0.5l1 -1q11 0 21 3q52 18 104 111q1 3 5 14v0l16 28q30 52 73.5 92.5t58.5 40.5q32 0 46.5 -15t13.5 -29l-1 -15q-54 -31 -89.5 -91.5t-30.5 -101.5q0 -5 2 -9q10 -8 28 -4q24 7 73.5 45.5t99 73t81.5 34.5zM121 191
l-1 -2q1 1 1 2z" />
    <glyph glyph-name="x.alt1" unicode="&#xf037;" horiz-adv-x="667" 
d="M507 276q20 12 49 -11t21 -60q-3 -14 -14 -36.5t-34.5 -52.5t-53.5 -55t-76 -42.5t-97 -17.5q-44 0 -90 65q-18 24 -39 63l-18.5 -18l-20.5 -19.5l-20 -18.5t-22 -19.5t-21.5 -16.5t-23.5 -15t-22.5 -10.5t-24 -8t-23.5 -2.5q-27 0 -44.5 19t-21.5 34v15q1 12 9 17t15 4
h7q-8 -6 -5 -19.5t13 -14.5q1 -1 5 -1q6 1 15 5.5t21 13.5l22.5 17.5l28.5 24t29 26l33 30.5l33 30l-17.5 40.5l-14 33.5t-6.5 14q-9 12 -18 12q-10 0 -20.5 -6t-24 -21l-24 -27.5t-29.5 -37t-31 -38.5l-31 17q67 126 102 155q19 17 37 17q47 0 76 -16.5t60 -72.5
q4 -8 6 -11q129 111 179 105q10 -1 21.5 -5.5t18.5 -8.5l7 -3q34 -5 35 -29q-21 1 -41 -10q-34 -8 -181 -122q52 -89 67 -98q12 -6 24 -6q2 0 3 1q13 1 40.5 17.5t57.5 41.5t52 61.5t22 70.5zM197 270v1v-1zM70 335q9 -11 23 -33q-14 22 -23 33q-12 12 -31 12q19 0 31 -12z
" />
    <glyph glyph-name="x.alt2" unicode="&#xf038;" horiz-adv-x="488" 
d="M381 244q29 0 36 -15q-1 -16 -40 -75t-85 -101q-60 -55 -112 -55q-44 0 -90 65q-18 24 -39 63l-18.5 -18l-20.5 -19.5l-20 -18.5t-22 -19.5t-21.5 -16.5t-23.5 -15t-22.5 -10.5t-24 -8t-23.5 -2.5q-27 0 -44.5 19.5t-21.5 34.5v4v5.5v5.5q1 11 9 16t15 5l7 -1
q-8 -6 -5 -19t13 -15h5q5 1 11.5 3.5t15 8.5l16.5 11.5t19.5 15.5l20.5 17.5l23.5 20.5l24 21.5l26 24l25.5 23.5l-17.5 40.5t-14 34t-6.5 14.5q-17 31 -48 31q-21 0 -31 -10q0 13 12 29t28 20q40 11 71.5 -9t64.5 -80q2 -3 6 -11q130 112 179 106q10 -2 21.5 -6t18.5 -8
l7 -3q34 -6 35 -29q-19 1 -41 -10q-38 -11 -181 -123q54 -91 67 -97q12 -6 24 -6h3q29 3 75 42.5t93 119.5zM75 268v1v-1z" />
    <glyph glyph-name="nonmarkingreturn.1" horiz-adv-x="0" 
 />
  </font>
</defs>
</svg>
